Recommended HD Movies
Bad.Hair.2020.HULU.1080p.WEB-DL.H264.AC3-EVO[TGx].
Lets.Scare.Julie.2020.1080p.Bluray.DTS-HD.MA.5.1.X264-EVO[TGx].
Borat.2.Subsequent.Moviefilm.2020.1080p.AMZN.WEB-DL.H264.DDP5.1-EVO[TGx].
Witches.of.Amityville.2020.720p.WEBRip.800MB.x264-GalaxyRG.
Ben.10.vs.the.Universe.The.Movie.2020.720p.WEBRip.800MB.x264-GalaxyRG.
Archive.2020.720p.BluRay.800MB.x264-GalaxyRG.

HOT WebDL/XvID Movies
The.Perfect.Pickup.2020.HDRip.XviD.AC3-EVO[TGx].
Chronicle.DC.BDRip.XviD-DoNE [TGx].
Turn.of.the.Cheek.2020.HDRip.XviD.AC3-EVO[TGx].
The.Wristwatch.2020.HDRip.XviD.AC3-EVO[TGx].
Clownery.2020.HDRip.XviD.AC3-EVO[TGx].
On.the.Arm.2020.HDRip.XviD.AC3-EVO[TGx]

Recommended HD TV
The.Outpost.S03E01.720p.x265-ZMNT.
The.Boys.S02E08.720p.x265-ZMNT.
Supernatural.S15E14.720p.x265-ZMNT.
Star.Trek.Lower.Decks.S01E10.720p.x265-ZMNT.
NeXt.S01E01.720p.x265-ZMNT.
The.Simpsons.S32E02.720p.x265-ZMNT.

HOT Foreign Movies
Sanjhbati (2019) Bengali 720p WEBRip ⭐1.2 GB⭐ ESub AAC x264 - Shadow (BonsaiHD)
Ginny Weds Sunny (2020) Hindi 720p NF WEB-DL ⭐750 MB⭐ ESub AAC x264 - Shadow (BonsaiHD)
Ka Pae Ranasingam (2020) Hindi 720p WEBRip 1.4 GB ESub AAC x264 - Shadow (BonsaiHD)
Gandii Baat (2020) Hindi S05 Complete 720p WEBRip ⭐1.4 GB⭐ ESub AAC x264 - Shadow (BonsaiHD)
Khaali Peeli (2020) 720p WEBRip Multi Audio [Hindi + Tamil + Telegu] ⭐1.1 GB⭐ ESub AAC 2CH x264 - Shadow (BonsaiHD)
Serious Men (2020) Hindi 720p NF WEB-DL ⭐850 MB⭐ ESub AAC  x264 - Shadow (BonsaiHD)

Recommended SD TV
The.Outpost.S03E01.480p.x264-ZMNT
The.Boys.S02E08.480p.x264-ZMNT
Supernatural.S15E14.480p.x264-ZMNT
Star.Trek.Lower.Decks.S01E10.480p.x264-ZMNT
NeXt.S01E01.480p.x264-ZMNT
The.Simpsons.S32E02.480p.x264-ZMNT

Recommended Music
MP3 NEW RELEASES 2020 WEEK 33 - [GloDLS]
MP3 NEW RELEASES 2020 WEEK 32 - [GloDLS]
MP3 NEW RELEASES 2020 WEEK 31 - [GloDLS]
MP3 NEW RELEASES 2020 WEEK 30 - [GloDLS]
MP3 NEW RELEASES 2020 WEEK 29 - [GloDLS]
MP3 NEW RELEASES 2020 WEEK 28 - [GloDLS]
MP3 NEW RELEASES 2020 WEEK 27 - [GloDLS]
MP3 NEW RELEASES 2020 WEEK 26 - [GloDLS]


Torrent Details For "Fantasy Island (2020) Unrated.720p.H264.ita.eng.Ac..."

Fantasy Island (2020) Unrated.720p.H264.ita.eng.Ac...

Download this torrent
Last Checked: 26-10-2020 20:51:01
Tracked: External



Technical Info
Fantasy Island (2020) Unrated.720p.H264.ita.eng.Ac3-5.1.sub.ita.eng-MIRCrew Category

Language

Date Added

Total Size

Completed

Added By

Info Hash

Seeders

Leechers

Views

Movies > HD

English

16-10-2020 16:50:03

2.01 GB

5,903

MIRCrewRS Trusted Uploader


76fe17ff60569614df58351c0fb310628a0676e9

204

52

18

Last Updated 27-10-2020 23:45:28

Details
Name:Fantasy Island (2020) Unrated.720p.H264.ita.eng.Ac...
Description:
Fantasy Island (2020) Unrated.720p.H264.ita.eng.Ac3-5.1.sub.ita.eng-MIRCrew


NO FOUND ONLY ORIGINAL RELEASE


My release is always in double track audio italian and Original audio
for select it use VLC or dvd player home
not use wmp

Fantasy Island (2020)

Quality MIRCrew on HD 720p da 2,0 gb







 

Lingua originale inglese
Paese di produzione Stati Uniti d'America
Anno 2020
Durata 109 min
Genere Horror, avventura
Regia Jeff Wadlow
Soggetto basato su Fantasilandia di Gene Levitt
Sceneggiatura Jillian Jacobs, Chris Roach, Jeff Wadlow



   Lucy Hale: Melanie Cole
   Michael Peña: Mr. Roarke
   Maggie Q: Gwen Olsen
   Austin Stowell: Patrick Sullivan
   Portia Doubleday: Sloane Maddison
   Parisa Fitz-Henley: Julia Roarke
   Jimmy O. Yang: Brax Weaver / Tattoo
   Ryan Hansen: JD Weaver
   Michael Rooker: Damon
   Charlotte McKinney: Chastity
   Kim Coates: Devil Face



La donna d'affari Gwen Olsen, l'ex-agente di polizia Patrick Sullivan, i fratellastri JD e Brax Weaver e la giovane Melanie Cole vincono un concorso per visitare Fantasy Island, un resort tropicale, gestito dall'enigmatico Mr. Roarke, dove apparentemente le fantasie diventano realtà. Gli ospiti, giunti con un idrovolante, vengono accolti da Roarke e Julia e successivamente accompagnati ciascuno nelle proprie fantasie



When the owner and operator of a luxurious island invites a collection of guests to live out their most elaborate fantasies in relative seclusion, chaos quickly descends.

 














General

Complete name                            : Fantasy Island (2020).720p.h264.ita.eng.sub.ita.eng-MIRCrew\Fantasy Island (2020).720p.h264.ita.eng.sub.ita.eng-MIRCrew.mkv
Format                                   : Matroska
Format version                           : Version 2
File size                                : 2.01 GiB
Duration                                 : 1h 49mn
Overall bit rate                         : 2 632 Kbps
Movie name                               : MIRCrew
Encoded date                             : UTC 2020-05-04 19:53:11
Writing application                      : Lavf54.63.100
Writing library                          : Lavf54.63.100
COMMENT                                  : MIRCrew

Video
ID                                       : 1
Format                                   : AVC
Format/Info                              : Advanced Video Codec
Format profile                           : [email protected]
Format settings, CABAC                   : Yes
Format settings, ReFrames                : 2 frames
Codec ID                                 : V_MPEG4/ISO/AVC
Duration                                 : 1h 49mn
Bit rate                                 : 1 900 Kbps
Width                                    : 1 264 pixels
Height                                   : 528 pixels
Display aspect ratio                     : 2.40:1
Original display aspect ratio            : 2.40:1
Frame rate mode                          : Variable
Frame rate                               : 23.976 fps
Color space                              : YUV
Chroma subsampling                       : 4:2:0
Bit depth                                : 8 bits
Scan type                                : Progressive
Bits/(Pixel*Frame)                       : 0.119
Stream size                              : 1.38 GiB (69%)
Writing library                          : x264 core 130 r2273
Encoding settings                        : cabac=1 / ref=2 / deblock=1:-1:-1 / analyse=0x1:0x131 / me=hex / subme=7 / psy=1 / psy_rd=1.00:0.10 / mixed_ref=0 / me_range=16 / chroma_me=1 / trellis=1 / 8x8dct=0 / cqm=0 / deadzone=21,11 / fast_pskip=1 / chroma_qp_offset=-3 / threads=9 / lookahead_threads=1 / sliced_threads=0 / nr=0 / decimate=1 / interlaced=0 / bluray_compat=0 / constrained_intra=0 / bframes=3 / b_pyramid=0 / b_adapt=1 / b_bias=0 / direct=3 / weightb=1 / open_gop=0 / weightp=2 / keyint=230 / keyint_min=23 / scenecut=40 / intra_refresh=0 / rc_lookahead=40 / rc=abr / mbtree=1 / bitrate=1900 / ratetol=1.0 / qcomp=0.60 / qpmin=10 / qpmax=69 / qpstep=4 / vbv_maxrate=24000 / vbv_bufsize=24000 / nal_hrd=none / ip_ratio=1.40 / aq=1:1.00
Language                                 : Italian
Default                                  : Yes
Forced                                   : No
DURATION                                 : 01:49:24.016000000
NUMBER_OF_FRAMES                         : 157379
NUMBER_OF_BYTES                          : 2311625423
_STATISTICS_WRITING_APP                  : mkvmerge v41.0.0 ('Smarra') 64-bit
_STATISTICS_WRITING_DATE_UTC             : 2020-05-04 19:53:11
_STATISTICS_TAGS                         : BPS DURATION NUMBER_OF_FRAMES NUMBER_OF_BYTES

Audio #1
ID                                       : 2
Format                                   : AC-3
Format/Info                              : Audio Coding 3
Mode extension                           : CM (complete main)
Codec ID                                 : A_AC3
Duration                                 : 1h 49mn
Bit rate mode                            : Constant
Bit rate                                 : 384 Kbps
Channel(s)                               : 6 channels
Channel positions                        : Front: L C R, Side: L R, LFE
Sampling rate                            : 48.0 KHz
Bit depth                                : 16 bits
Compression mode                         : Lossy
Delay relative to video                  : 1mn 5s
Stream size                              : 300 MiB (15%)
Language                                 : Italian
Default                                  : Yes
Forced                                   : No
DURATION                                 : 01:49:24.256000000
NUMBER_OF_FRAMES                         : 205133
NUMBER_OF_BYTES                          : 315084288
_STATISTICS_WRITING_APP                  : mkvmerge v41.0.0 ('Smarra') 64-bit
_STATISTICS_WRITING_DATE_UTC             : 2020-05-04 19:53:11
_STATISTICS_TAGS                         : BPS DURATION NUMBER_OF_FRAMES NUMBER_OF_BYTES

Audio #2
ID                                       : 3
Format                                   : AC-3
Format/Info                              : Audio Coding 3
Mode extension                           : CM (complete main)
Codec ID                                 : A_AC3
Duration                                 : 1h 49mn
Bit rate mode                            : Constant
Bit rate                                 : 384 Kbps
Channel(s)                               : 6 channels
Channel positions                        : Front: L C R, Side: L R, LFE
Sampling rate                            : 48.0 KHz
Bit depth                                : 16 bits
Compression mode                         : Lossy
Delay relative to video                  : 1mn 5s
Stream size                              : 300 MiB (15%)
Title                                    : Surround
Language                                 : English
Default                                  : No
Forced                                   : No
DURATION                                 : 01:49:24.032000000
NUMBER_OF_FRAMES                         : 205126
NUMBER_OF_BYTES                          : 315073536
_STATISTICS_WRITING_APP                  : mkvmerge v41.0.0 ('Smarra') 64-bit
_STATISTICS_WRITING_DATE_UTC             : 2020-05-04 19:53:11
_STATISTICS_TAGS                         : BPS DURATION NUMBER_OF_FRAMES NUMBER_OF_BYTES

Menu
00:00:00.000                             : :Chapter 1
00:08:47.110                             : :Chapter 2
00:13:44.866                             : :Chapter 3
00:18:47.501                             : :Chapter 4
00:25:42.374                             : :Chapter 5
00:32:38.832                             : :Chapter 6
00:39:34.956                             : :Chapter 7
00:45:24.847                             : :Chapter 8
00:51:02.142                             : :Chapter 9
00:55:38.460                             : :Chapter 10
01:01:34.149                             : :Chapter 11
01:09:40.218                             : :Chapter 12
01:15:21.559                             : :Chapter 13
01:23:03.020                             : :Chapter 14
01:29:11.680                             : :Chapter 15
01:40:03.956                             : :Chapter 16







Ratings:Not Yet Rated (Log in to rate it)


Tracker:
udp://tracker.torrent.eu.org:451/announce

This Torrent also has backup trackers
URLSeedersLeechersCompleted
udp://tracker.torrent.eu.org:451/announce4671,714
udp://tracker.coppersurfer.tk:6969/announce111
udp://tracker.torrent.eu.org:451/announce4671,714
udp://tracker.pirateparty.gr:6969/announce111
udp://tracker.leechers-paradise.org:6969/announce71301
udp://tracker.cyberia.is:6969/announce155486
udp://tracker.iamhansen.xyz:2000/announce111
udp://p4p.arenabg.com:1337/announce111
udp://explodie.org:6969/announce730
udp://tracker.opentrackr.org:1337/announce216697
udp://tracker.tiny-vps.com:6969/announce185462
udp://exodus.desync.com:6969/announce16541
udp://ipv4.tracker.harry.lu:80/announce820
udp://open.stealth.si:80/announce156483
udp://9.rarbg.to:2710/announce111


File List: 


Comments

No comments still posted