Recommended HD Movies
Jingle Jangle: A Christmas Journey 2020 FullHD 1080p.H264 Ita Eng AC3 5.1 Sub Ita Eng ODS.
Tobol (2019) Frontiere Selvagge - The Conquest of Siberia. BluRay 1080p.H264 Ita Rus AC3 5.1 Sub Ita Eng ODS.
Mighty Oak (2020) FullHD 1080p.H264 Ita Eng AC3 5.1 Sub Ita Eng .ODS.
The Boondock Saints (1999) Giustizia Finale.BluRay 1080p.H264 Ita Eng AC3 5.1 Sub Ita Eng ODS.
Bad.Hair.2020.HULU.1080p.WEB-DL.H264.AC3-EVO[TGx].
Lets.Scare.Julie.2020.1080p.Bluray.DTS-HD.MA.5.1.X264-EVO[TGx].

HOT WebDL/XvID Movies
The.Perfect.Pickup.2020.HDRip.XviD.AC3-EVO[TGx].
Chronicle.DC.BDRip.XviD-DoNE [TGx].
Turn.of.the.Cheek.2020.HDRip.XviD.AC3-EVO[TGx].
The.Wristwatch.2020.HDRip.XviD.AC3-EVO[TGx].
Clownery.2020.HDRip.XviD.AC3-EVO[TGx].
On.the.Arm.2020.HDRip.XviD.AC3-EVO[TGx]

Recommended HD TV
His.Dark.Materials.S02E02.720p.x265-ZMNT.
The.Astronauts.S01E01-E02.720p.x265-ZMNT.
The.Simpsons.S32E06.720p.x265-ZMNT.
The.Mandalorian.S02E03.720p.x265-ZMNT.
Supernatural.S15E19.720p.x265-ZMNT.
The.Outpost.S03E01.720p.x265-ZMNT.

HOT Foreign Movies
Sanjhbati (2019) Bengali 720p WEBRip ⭐1.2 GB⭐ ESub AAC x264 - Shadow (BonsaiHD)
Ginny Weds Sunny (2020) Hindi 720p NF WEB-DL ⭐750 MB⭐ ESub AAC x264 - Shadow (BonsaiHD)
Ka Pae Ranasingam (2020) Hindi 720p WEBRip 1.4 GB ESub AAC x264 - Shadow (BonsaiHD)
Gandii Baat (2020) Hindi S05 Complete 720p WEBRip ⭐1.4 GB⭐ ESub AAC x264 - Shadow (BonsaiHD)
Khaali Peeli (2020) 720p WEBRip Multi Audio [Hindi + Tamil + Telegu] ⭐1.1 GB⭐ ESub AAC 2CH x264 - Shadow (BonsaiHD)
Serious Men (2020) Hindi 720p NF WEB-DL ⭐850 MB⭐ ESub AAC  x264 - Shadow (BonsaiHD)

Recommended SD TV
The.Outpost.S03E01.480p.x264-ZMNT
The.Boys.S02E08.480p.x264-ZMNT
Supernatural.S15E14.480p.x264-ZMNT
Star.Trek.Lower.Decks.S01E10.480p.x264-ZMNT
NeXt.S01E01.480p.x264-ZMNT
The.Simpsons.S32E02.480p.x264-ZMNT

Recommended Music
MP3 NEW RELEASES 2020 WEEK 33 - [GloDLS]
MP3 NEW RELEASES 2020 WEEK 32 - [GloDLS]
MP3 NEW RELEASES 2020 WEEK 31 - [GloDLS]
MP3 NEW RELEASES 2020 WEEK 30 - [GloDLS]
MP3 NEW RELEASES 2020 WEEK 29 - [GloDLS]
MP3 NEW RELEASES 2020 WEEK 28 - [GloDLS]
MP3 NEW RELEASES 2020 WEEK 27 - [GloDLS]
MP3 NEW RELEASES 2020 WEEK 26 - [GloDLS]


Torrent Details For "Love Aaj Kal Porshu (2020) Bengali Movie 1CD HDRip..."

Love Aaj Kal Porshu (2020) Bengali Movie 1CD HDRip...

Download this torrent
Last Checked: 12-11-2020 12:17:22
Tracked: External



IMDB - Love Aaj Kal 2
Love Aaj Kal 2 Link

Category

Language

Date Added

Total Size

Completed

Added By

Info Hash

Seeders

Leechers

Views

https://www.imdb.com/title/tt10801042/

Foreign Movies > HD



12-11-2020 12:15:02

681.16 MB

3

Pherarim Trusted Uploader


c86f91eee18952a996de925f1551dc31500a2fb9

14

3

35

6.1
Votes 247
Last Updated 25-11-2020 07:53:53

Details
Name:Love Aaj Kal Porshu (2020) Bengali Movie 1CD HDRip...
Description:
Love Aaj Kal Porshu (2020) Bengali Movie 1CD HDRip [x264 AAC(2Ch)] - 700 MB






[mediainfo]

Code:

General
Format                         : MPEG-4
Format profile                 : Base Media / Version 2
Codec ID                       : mp42 (mp42)
File size                      : 681 MiB
Duration                       : 1 h 54 min
Overall bit rate mode          : Constant
Overall bit rate               : 833 kb/s
Codirector                     : codirector
Production studio              : studio
ContentType                    : Unknown Type
Encoded date                   : UTC 2020-11-09 19:41:54
Tagged date                    : UTC 2020-11-09 19:41:54

Video
ID                             : 1
Format                         : MPEG-4 Visual
Format settings, BVOP          : Yes
Format settings, QPel          : No
Format settings, GMC           : No warppoints
Format settings, Matrix        : Default (H.263)
Codec ID                       : 20
Duration                       : 1 h 54 min
Bit rate mode                  : Constant
Bit rate                       : 700 kb/s
Width                          : 684 pixels
Height                         : 384 pixels
Display aspect ratio           : 16:9
Frame rate mode                : Constant
Frame rate                     : 29.970 (30000/1001) FPS
Color space                    : YUV
Bit depth                      : 8 bits
Scan type                      : Progressive
Compression mode               : Lossy
Bits/(Pixel*Frame)             : 0.089
Stream size                    : 572 MiB (84%)
Writing library                : Intel(R) MPEG-4 encoder based on Intel(R) IPP 6.1 build 137.20[6.1.137.763]
Language                       : English

Audio
ID                             : 2
Format                         : AAC
Format/Info                    : Advanced Audio Codec
Format profile                 : LC
Codec ID                       : 40
Duration                       : 1 h 54 min
Bit rate mode                  : Constant
Bit rate                       : 128 kb/s
Channel(s)                     : 2 channels
Channel positions              : Front: L R
Sampling rate                  : 44.1 kHz
Frame rate                     : 43.066 FPS (1024 SPF)
Compression mode               : Lossy
Stream size                    : 105 MiB (15%)
Title                          : Stereo
Language                       : English
Default                        : Yes
Alternate group                : 1


[/mediainfo]









Ratings:Not Yet Rated (Log in to rate it)


Tracker:
udp://tracker.coppersurfer.tk:6969/announce

This Torrent also has backup trackers
URLSeedersLeechersCompleted
udp://tracker.coppersurfer.tk:6969/announce111
udp://tracker.leechers-paradise.org:6969/announce111
udp://9.rarbg.to:2940/announce100
udp://tracker.openbittorrent.com:1337/announce200
udp://ipv4.tracker.harry.lu:80/announce100
udp://open.stealth.si:80/announce200
udp://tracker.tiny-vps.com:6969/announce200
udp://open.demonii.si:1337/announce111
udp://9.rarbg.me:2760/announce100
udp://tracker.opentrackr.org:1337200


File List: 


Comments

No comments still posted