Recommended SD TV
Charmed.S04E13.480p.x264-ZMNT
Legacies.S04E19.480p.x264-ZMNT
The.Boys.S03E04.480p.x264-ZMNT
The.Flash.S08E17.480p.x264-ZMNT
Star.Trek.Strange.New.Worlds.S01E06.480p.x264-ZMNT
Obi-Wan.Kenobi.S01E02.480p.x264-ZMNT

Recommended HD Movies
Moonfall.2022.WEBRip.2160p.UHD.HDR.Eng.DD5.1.gerald99
A Journal for Jordan (2021) BluRay 1080p.H264 Ita Eng AC3 5.1 Sub Ita Eng - realDMDJ iDN CreW.
Better Nate Than Ever (2022) Meglio Nate....Disney+ FullHD 1080p.H264 Ita Eng AC3 5.1 Multisub realDMDJ iDN CreW.
Mad.Max.Fury.Road.2015.BRRip.2160p.UHD.HDR.Eng.DD5.1.gerald99
The Contractor (2022) [WEBRip] [1080p] [YTS.MX].
West Side Story (2021) [BluRay] [720p] [YTS.MX].

Recommended Music
MP3 NEW RELEASES 2022 WEEK 06 - [GloDLS]
MP3 NEW RELEASES 2022 WEEK 05 - [GloDLS]
MP3 NEW RELEASES 2022 WEEK 04 - [GloDLS]
MP3 NEW RELEASES 2022 WEEK 03 - [GloDLS]
MP3 NEW RELEASES 2022 WEEK 02 - [GloDLS]
MP3 NEW RELEASES 2022 WEEK 01 - [GloDLS]
MP3 NEW RELEASES 2021 WEEK 40 - [GloDLS]
MP3 NEW RELEASES 2021 WEEK 39 - [GloDLS]

Recommended HD TV
Charmed.S04E13.720p.x265-ZMNT.
Legacies.S04E19.720p.x265-ZMNT.
The.Boys.S03E04.720p.x265-ZMNT.
The.Flash.S08E17.720p.x265-ZMNT.
Star.Trek.Strange.New.Worlds.S01E06.720p.x265-ZMNT.
Obi-Wan.Kenobi.S01E02.720p.x265-ZMNT

HOT Foreign Movies
Rurouni.Kenshin.The.Beginning.Part.2.2021.WEBRip.h264-Dual.YG⭐
Kalki (2019)  HDRip x264 HiNdi Dubb AAC
Sandeep Aur Pinky Faraar (2021) Hindi WebHD 720p AAC 2.0
Sultan (2021) HDRip x264 HiNdi Dubb AAC - 1GB
Hum Bhi Akele Tum Bhi Akele (2019) WebRip 720p Hindi AAC 2.0
Wild Dog (2021) HDRip x264 HiNdi Dubb AAC - 1.17GB

Torrent Details For "Mad.Max.Fury.Road.2015.BRRip.2160p.UHD.HDR.Eng.DD5..."

Mad.Max.Fury.Road.2015.BRRip.2160p.UHD.HDR.Eng.DD5...

Download this torrent
Last Checked: 29-07-2022 18:20:07
Tracked: External



Technical Info
Mad.Max.Fury.Road.2015.BRRip.2160p.UHD.HDR.Eng.DD5.1.gerald99 Category

Language

Date Added

Total Size

Completed

Added By

Info Hash

Seeders

Leechers

Views

Movies > HD

English

01-04-2022 12:03:19

8.16 GB

474

gerald99 Trusted Uploader


27bd1f27d949a11c0c66388c2247d471bb1a837d

4

8

65

Last Updated 10-08-2022 23:43:41

Details
Name:Mad.Max.Fury.Road.2015.BRRip.2160p.UHD.HDR.Eng.DD5...
Description:



https://www.imdb.com/title/tt1392190/
2015 R 2h Action Adventure Sci-Fi 8.1/10
Stars Tom Hardy Charlize Theron Nicholas Hoult
Taglines WHAT A LOVELY DAY

Storyline
An apocalyptic story set in the furthest reaches of our planet, in a stark desert landscape where humanity is broken, and almost everyone is crazed fighting for the necessities of life. Within this world exist two rebels on the run who just might be able to restore order. There's Max, a man of action and a man of few words, who seeks peace of mind following the loss of his wife and child in the aftermath of the chaos. And Furiosa, a woman of action and a woman who believes her path to survival may be achieved if she can make it across the desert back to her childhood homeland.

Format                                   : Matroska
Format version                           : Version 4
File size                                : 8.16 GiB
Duration                                 : 2 h 0 min
Overall bit rate                         : 9 713 kb/s
Movie name                               : Mad Max: Fury Road
Encoded date                             : UTC 2022-03-31 00:12:46
Writing application                      : mkvmerge v66.0.0 ('Josie') 64-bit
Writing library                          : libebml v1.4.2 + libmatroska v1.6.4

Video
ID                                       : 1
Format                                   : HEVC
Format/Info                              : High Efficiency Video Coding
Commercial name                          : HDR10
Format profile                           : Main [email protected]@High
Codec ID                                 : V_MPEGH/ISO/HEVC
Duration                                 : 2 h 0 min
Bit rate                                 : 9 320 kb/s
Width                                    : 3 840 pixels
Height                                   : 2 160 pixels
Display aspect ratio                     : 16:9
Frame rate mode                          : Constant
Frame rate                               : 23.976 (24000/1001) FPS
Color space                              : YUV
Chroma subsampling                       : 4:2:0 (Type 2)
Bit depth                                : 10 bits
Stream size                              : 7.83 GiB (96%)
Title                                    : Mad Max: Fury Road
Default                                  : Yes
Forced                                   : No
Color range                              : Limited
Color primaries                          : BT.2020
Transfer characteristics                 : PQ
Matrix coefficients                      : BT.2020 non-constant
Mastering display color primaries        : Display P3
Mastering display luminance              : min: 0.0050 cd/m2, max: 4000 cd/m2
Maximum Content Light Level              : 9918 cd/m2
Maximum Frame-Average Light Level        : 3241 cd/m2

Audio
ID                                       : 2
Format                                   : AC-3
Format/Info                              : Audio Coding 3
Commercial name                          : Dolby Digital
Codec ID                                 : A_AC3
Duration                                 : 2 h 0 min
Bit rate mode                            : Constant
Bit rate                                 : 384 kb/s
Channel(s)                               : 6 channels
Channel layout                           : L R C LFE Ls Rs
Sampling rate                            : 48.0 kHz
Frame rate                               : 31.250 FPS (1536 SPF)
Bit depth                                : 16 bits
Compression mode                         : Lossy
Delay relative to video                  : 23 ms
Stream size                              : 331 MiB (4%)
Title                                    : Dolby Digital 5.1
Language                                 : English
Service kind                             : Complete Main
Default                                  : No
Forced                                   : No

Text
ID                                       : 3
Format                                   : PGS
Muxing mode                              : zlib
Codec ID                                 : S_HDMV/PGS
Codec ID/Info                            : Picture based subtitle format used on BDs/HD-DVDs
Duration                                 : 2 h 0 min
Bit rate                                 : 17.6 kb/s
Count of elements                        : 2334
Stream size                              : 15.1 MiB (0%)
Language                                 : English
Default                                  : No
Forced                                   : No


Ratings:Not Yet Rated (Log in to rate it)


Tracker:
udp://tracker.opentrackr.org:1337/announce

This Torrent also has backup trackers
URLSeedersLeechersCompleted
udp://tracker.opentrackr.org:1337/announce13447
udp://fe.dealclub.de:6969/announce000
udp://bt2.archive.org:6969/announce000
udp://movies.zsw.ca:6969/announce000
udp://tracker.zerobytes.xyz:1337/announce111
udp://tracker.0x.tf:6969/announce111
udp://tracker.altrosky.nl:6969/announce000
udp://open.stealth.si:80/announce1325


File List: 


Comments

No comments still posted