Recommended SD TV
Winter.House.S02E04.WEBRip.x264-XEN0N
Charmed.S04E13.480p.x264-ZMNT
Legacies.S04E19.480p.x264-ZMNT
The.Boys.S03E04.480p.x264-ZMNT
The.Flash.S08E17.480p.x264-ZMNT
Star.Trek.Strange.New.Worlds.S01E06.480p.x264-ZMNT

Recommended HD Movies
Pinocchio (2022) [WEBRip] [1080p] [YTS.MX]
Thor: Love and Thunder (2022) FullHD 1080p.H264 Ita Eng AC3 5.1 Sub Ita Eng realDMDJ DDL Ita
Zombae (2022) [WEBRip] [1080p] [YTS.MX]
Low Life (2022) [WEBRip] [1080p] [YTS.MX]
Cain and Abel (2021) [WEBRip] [1080p] [YTS.MX]
Proverbs 31 (2021) [WEBRip] [720p] [YTS.MX]

Recommended Music
MP3 NEW RELEASES 2022 WEEK 06 - [GloDLS]
MP3 NEW RELEASES 2022 WEEK 05 - [GloDLS]
MP3 NEW RELEASES 2022 WEEK 04 - [GloDLS]
MP3 NEW RELEASES 2022 WEEK 03 - [GloDLS]
MP3 NEW RELEASES 2022 WEEK 02 - [GloDLS]
MP3 NEW RELEASES 2022 WEEK 01 - [GloDLS]
MP3 NEW RELEASES 2021 WEEK 40 - [GloDLS]
MP3 NEW RELEASES 2021 WEEK 39 - [GloDLS]

Recommended HD TV
Manifest.S04E10.720p.x264-FENiX
Station.19.S06E05.720p.x265-T0PAZ
Walker.S03E05.720p.x265-T0PAZ
The.Handmaids.Tale.S05E09.720p.x264-FENiX
See.S03E01.720p.x264-FENiX
Charmed.S04E13.720p.x265-ZMNT.

HOT Foreign Movies
RRR (2022) Hindi 1080p HDCAM [No LOGO] x264 AAC 2 6GB [HDWebMovies]
Sardar Udham (2021) Hindi 720p AMZN WEB-DL AC3DDP5+1 x264 ESub 1.1GB [Themoviesboss]
Bhuj: The Pride of India (2021) Hindi UNTOUCHED 1080p HS WEB-DL AC3DD5.1 ESub 1.6GB [HDWebMovies]
Rurouni.Kenshin.The.Beginning.Part.2.2021.WEBRip.h264-Dual.YG⭐
Kalki (2019)  HDRip x264 HiNdi Dubb AAC
Sandeep Aur Pinky Faraar (2021) Hindi WebHD 720p AAC 2.0

Torrent Details For "Moonfall.2022.WEBRip.2160p.UHD.HDR.Eng.DD5.1.geral..."

Moonfall.2022.WEBRip.2160p.UHD.HDR.Eng.DD5.1.geral...

Download this torrent
Last Checked: 25-11-2022 01:08:26
Tracked: External



Technical Info
Moonfall.2022.WEBRip.2160p.UHD.HDR.Eng.DD5.1.gerald99 Category

Language

Date Added

Total Size

Completed

Added By

Info Hash

Seeders

Leechers

Views

Movies > HD

English

02-04-2022 13:46:25

9.13 GB

4,410

gerald99 Trusted Uploader


a4998168437388e44af03419f9601646b8dc22cc

1

1

83

Last Updated 29-11-2022 06:44:59

Details
Name:Moonfall.2022.WEBRip.2160p.UHD.HDR.Eng.DD5.1.geral...
Description:



https://www.imdb.com/title/tt5834426/
2022 PG-13 2h 10m Action Adventure Sci-Fi 5.2/10
Stars Halle Berry Patrick Wilson John Bradley
Taglines In 2022, Humanity will face the dark side of the Moon.

Storyline
In Moonfall, a mysterious force knocks the Moon from its orbit around Earth and sends it hurdling on a collision course with life as we know it. With mere weeks before impact and the world on the brink of annihilation, NASA executive and former astronaut Jo Fowler is convinced she has the key to saving us all - but only one astronaut from her past, Brian Harper and a conspiracy theorist K.C. Houseman believe her. These unlikely heroes will mount an impossible last-ditch mission into space, leaving behind everyone they love, only to find that they just might have prepared for the wrong mission.

Format                                   : Matroska
Format version                           : Version 4
File size                                : 9.13 GiB
Duration                                 : 2 h 10 min
Overall bit rate                         : 10.0 Mb/s
Movie name                               : Moonfall
Encoded date                             : UTC 2022-04-02 12:03:15
Writing application                      : mkvmerge v66.0.0 ('Josie') 64-bit
Writing library                          : libebml v1.4.2 + libmatroska v1.6.4

Video
ID                                       : 1
Format                                   : HEVC
Format/Info                              : High Efficiency Video Coding
Commercial name                          : HDR10
Format profile                           : Main [email protected]@High
Codec ID                                 : V_MPEGH/ISO/HEVC
Duration                                 : 2 h 10 min
Bit rate                                 : 9 393 kb/s
Width                                    : 3 840 pixels
Height                                   : 1 604 pixels
Display aspect ratio                     : 2.40:1
Frame rate mode                          : Constant
Frame rate                               : 23.976 (24000/1001) FPS
Color space                              : YUV
Chroma subsampling                       : 4:2:0 (Type 2)
Bit depth                                : 10 bits
Stream size                              : 8.55 GiB (94%)
Title                                    : Moonfall
Default                                  : Yes
Forced                                   : No
Color range                              : Limited
Color primaries                          : BT.2020
Transfer characteristics                 : PQ
Matrix coefficients                      : BT.2020 non-constant
Mastering display color primaries        : BT.2020
Mastering display luminance              : min: 0.0050 cd/m2, max: 1000 cd/m2
Maximum Content Light Level              : 958 cd/m2
Maximum Frame-Average Light Level        : 602 cd/m2

Audio
ID                                       : 2
Format                                   : AC-3
Format/Info                              : Audio Coding 3
Commercial name                          : Dolby Digital
Codec ID                                 : A_AC3
Duration                                 : 2 h 10 min
Bit rate mode                            : Constant
Bit rate                                 : 640 kb/s
Channel(s)                               : 6 channels
Channel layout                           : L R C LFE Ls Rs
Sampling rate                            : 48.0 kHz
Frame rate                               : 31.250 FPS (1536 SPF)
Bit depth                                : 16 bits
Compression mode                         : Lossy
Stream size                              : 596 MiB (6%)
Title                                    : Dolby Digital 5.1
Language                                 : English
Service kind                             : Complete Main
Default                                  : Yes
Forced                                   : No

Text #1
ID                                       : 3
Format                                   : UTF-8
Codec ID                                 : S_TEXT/UTF8
Codec ID/Info                            : UTF-8 Plain Text
Duration                                 : 2 h 0 min
Bit rate                                 : 69 b/s
Count of elements                        : 2261
Stream size                              : 61.8 KiB (0%)
Title                                    : English
Language                                 : English
Default                                  : Yes
Forced                                   : No

Text #2
ID                                       : 4
Format                                   : UTF-8
Codec ID                                 : S_TEXT/UTF8
Codec ID/Info                            : UTF-8 Plain Text
Duration                                 : 2 h 0 min
Bit rate                                 : 72 b/s
Count of elements                        : 2266
Stream size                              : 64.1 KiB (0%)
Title                                    : English [SDH]
Language                                 : English
Default                                  : No
Forced                                   : No


Ratings:Not Yet Rated (Log in to rate it)


Tracker:
udp://tracker.opentrackr.org:1337/announce

This Torrent also has backup trackers
URLSeedersLeechersCompleted
udp://tracker.opentrackr.org:1337/announce00893
udp://fe.dealclub.de:6969/announce001,164
udp://bt2.archive.org:6969/announce000
udp://movies.zsw.ca:6969/announce001,203
udp://tracker.zerobytes.xyz:1337/announce000
udp://tracker.0x.tf:6969/announce111
udp://tracker.altrosky.nl:6969/announce001,149
udp://open.stealth.si:80/announce000


File List: 


Comments

No comments still posted