Recommended SD TV
Charmed.S04E13.480p.x264-ZMNT
Legacies.S04E19.480p.x264-ZMNT
The.Boys.S03E04.480p.x264-ZMNT
The.Flash.S08E17.480p.x264-ZMNT
Star.Trek.Strange.New.Worlds.S01E06.480p.x264-ZMNT
Obi-Wan.Kenobi.S01E02.480p.x264-ZMNT

Recommended HD Movies
Moonfall.2022.WEBRip.2160p.UHD.HDR.Eng.DD5.1.gerald99
A Journal for Jordan (2021) BluRay 1080p.H264 Ita Eng AC3 5.1 Sub Ita Eng - realDMDJ iDN CreW.
Better Nate Than Ever (2022) Meglio Nate....Disney+ FullHD 1080p.H264 Ita Eng AC3 5.1 Multisub realDMDJ iDN CreW.
Mad.Max.Fury.Road.2015.BRRip.2160p.UHD.HDR.Eng.DD5.1.gerald99
The Contractor (2022) [WEBRip] [1080p] [YTS.MX].
West Side Story (2021) [BluRay] [720p] [YTS.MX].

Recommended Music
MP3 NEW RELEASES 2022 WEEK 06 - [GloDLS]
MP3 NEW RELEASES 2022 WEEK 05 - [GloDLS]
MP3 NEW RELEASES 2022 WEEK 04 - [GloDLS]
MP3 NEW RELEASES 2022 WEEK 03 - [GloDLS]
MP3 NEW RELEASES 2022 WEEK 02 - [GloDLS]
MP3 NEW RELEASES 2022 WEEK 01 - [GloDLS]
MP3 NEW RELEASES 2021 WEEK 40 - [GloDLS]
MP3 NEW RELEASES 2021 WEEK 39 - [GloDLS]

Recommended HD TV
Charmed.S04E13.720p.x265-ZMNT.
Legacies.S04E19.720p.x265-ZMNT.
The.Boys.S03E04.720p.x265-ZMNT.
The.Flash.S08E17.720p.x265-ZMNT.
Star.Trek.Strange.New.Worlds.S01E06.720p.x265-ZMNT.
Obi-Wan.Kenobi.S01E02.720p.x265-ZMNT

HOT Foreign Movies
Rurouni.Kenshin.The.Beginning.Part.2.2021.WEBRip.h264-Dual.YG⭐
Kalki (2019)  HDRip x264 HiNdi Dubb AAC
Sandeep Aur Pinky Faraar (2021) Hindi WebHD 720p AAC 2.0
Sultan (2021) HDRip x264 HiNdi Dubb AAC - 1GB
Hum Bhi Akele Tum Bhi Akele (2019) WebRip 720p Hindi AAC 2.0
Wild Dog (2021) HDRip x264 HiNdi Dubb AAC - 1.17GB

Torrent Details For "Cheeni (2020) Bengali 1080p Hoichoi WEBRip ESub x..."

Cheeni (2020) Bengali 1080p Hoichoi WEBRip ESub x...

Download this torrent
Last Checked: 02-08-2022 18:02:43
Tracked: External



IMDB - Cheeni
Cheeni Link

Category

Language

Date Added

Total Size

Completed

Added By

Info Hash

Seeders

Leechers

Views

tt13575922

Foreign Movies > HD



06-02-2021 08:34:29

920.33 MB

2,797

trueHD Trusted Uploader


0863baf4d5ed5f80153f85e714f4419a938bb581

194

10

410

6.4
Votes 631
Last Updated 17-08-2022 12:05:23

Details
Name:Cheeni (2020) Bengali 1080p Hoichoi WEBRip ESub x...
Description:



General
Unique ID                                : 54450579478318699640570024546784337970 (0x28F6CCD6AC56FAE579DD0D6167356032)
Complete name                            :Cheeni.2020.Bengali.1080p.Hoichoi.WEBRip.ESub.AAC.x265.HEVC.Shadow.BonsaiHD.mkv
Format                                   : Matroska
Format version                           : Version 4 / Version 2
File size                                : 920 MiB
Duration                                 : 1h 49mn
Overall bit rate                         : 1 180 Kbps
Movie name                               : Cheeni (2020) Bengali 1080p WEBRiP x265 HEVC AAC [Hasan]
Encoded date                             : UTC 2021-02-04 18:19:32
Writing application                      : mkvmerge v31.0.0 ('Dolores In A Shoestand') 32-bit
Writing library                          : libebml v1.3.6 + libmatroska v1.4.9

Video
ID                                       : 2
Format                                   : HEVC
Format/Info                              : High Efficiency Video Coding
Format profile                           : [email protected]@Main
Codec ID                                 : V_MPEGH/ISO/HEVC
Duration                                 : 1h 49mn
Bit rate                                 : 1 052 Kbps
Width                                    : 1 920 pixels
Height                                   : 804 pixels
Display aspect ratio                     : 2.40:1
Frame rate mode                          : Constant
Frame rate                               : 24.000 fps
Color space                              : YUV
Chroma subsampling                       : 4:2:0
Bit depth                                : 8 bits
Bits/(Pixel*Frame)                       : 0.028
Stream size                              : 821 MiB (89%)
Writing library                          : x265 3.2.1+1-b5c86a64bbbe:[Windows][GCC 9.2.0][64 bit] 8bit+10bit+12bit
Default                                  : Yes
Forced                                   : No
Color range                              : Limited
Color primaries                          : BT.709
Transfer characteristics                 : BT.709
Matrix coefficients                      : BT.709

Audio
ID                                       : 1
Format                                   : AAC
Format/Info                              : Advanced Audio Codec
Format profile                           : LC
Codec ID                                 : A_AAC
Duration                                 : 1h 49mn
Bit rate                                 : 125 Kbps
Channel(s)                               : 2 channels
Channel positions                        : Front: L R
Sampling rate                            : 48.0 KHz
Frame rate                               : 46.875 fps (1024 spf)
Compression mode                         : Lossy
Delay relative to video                  : -38ms
Stream size                              : 97.8 MiB (11%)
Default                                  : Yes
Forced                                   : No










Ratings:Not Yet Rated (Log in to rate it)


Tracker:
udp://tracker.coppersurfer.tk:6969/announce

This Torrent also has backup trackers
URLSeedersLeechersCompleted
udp://tracker.coppersurfer.tk:6969/announce111
udp://tracker.leechers-paradise.org:6969/announce111
http://tracker.foreverpirates.co:80/announce200
udp://tracker.cyberia.is:6969/announce111
udp://tracker.birkenwald.de:6969/announce111
udp://explodie.org:6969/announce1600
udp://tracker.opentrackr.org:1337/announce300927
udp://tracker.tiny-vps.com:6969/announce11156
udp://exodus.desync.com:6969/announce27041
udp://tracker.torrent.eu.org:451/announce2901,096
udp://tracker.moeking.me:6969/announce26190
udp://ipv4.tracker.harry.lu:80/announce281549
udp://open.stealth.si:80/announce19132
udp://9.rarbg.to:2710/announce111
udp://opentor.org:2710/announce111


File List: 


Comments

No comments still posted