Recommended SD TV
Charmed.S04E13.480p.x264-ZMNT
Legacies.S04E19.480p.x264-ZMNT
The.Boys.S03E04.480p.x264-ZMNT
The.Flash.S08E17.480p.x264-ZMNT
Star.Trek.Strange.New.Worlds.S01E06.480p.x264-ZMNT
Obi-Wan.Kenobi.S01E02.480p.x264-ZMNT

Recommended HD Movies
Moonfall.2022.WEBRip.2160p.UHD.HDR.Eng.DD5.1.gerald99
A Journal for Jordan (2021) BluRay 1080p.H264 Ita Eng AC3 5.1 Sub Ita Eng - realDMDJ iDN CreW.
Better Nate Than Ever (2022) Meglio Nate....Disney+ FullHD 1080p.H264 Ita Eng AC3 5.1 Multisub realDMDJ iDN CreW.
Mad.Max.Fury.Road.2015.BRRip.2160p.UHD.HDR.Eng.DD5.1.gerald99
The Contractor (2022) [WEBRip] [1080p] [YTS.MX].
West Side Story (2021) [BluRay] [720p] [YTS.MX].

Recommended Music
MP3 NEW RELEASES 2022 WEEK 06 - [GloDLS]
MP3 NEW RELEASES 2022 WEEK 05 - [GloDLS]
MP3 NEW RELEASES 2022 WEEK 04 - [GloDLS]
MP3 NEW RELEASES 2022 WEEK 03 - [GloDLS]
MP3 NEW RELEASES 2022 WEEK 02 - [GloDLS]
MP3 NEW RELEASES 2022 WEEK 01 - [GloDLS]
MP3 NEW RELEASES 2021 WEEK 40 - [GloDLS]
MP3 NEW RELEASES 2021 WEEK 39 - [GloDLS]

Recommended HD TV
Charmed.S04E13.720p.x265-ZMNT.
Legacies.S04E19.720p.x265-ZMNT.
The.Boys.S03E04.720p.x265-ZMNT.
The.Flash.S08E17.720p.x265-ZMNT.
Star.Trek.Strange.New.Worlds.S01E06.720p.x265-ZMNT.
Obi-Wan.Kenobi.S01E02.720p.x265-ZMNT

HOT Foreign Movies
Rurouni.Kenshin.The.Beginning.Part.2.2021.WEBRip.h264-Dual.YG⭐
Kalki (2019)  HDRip x264 HiNdi Dubb AAC
Sandeep Aur Pinky Faraar (2021) Hindi WebHD 720p AAC 2.0
Sultan (2021) HDRip x264 HiNdi Dubb AAC - 1GB
Hum Bhi Akele Tum Bhi Akele (2019) WebRip 720p Hindi AAC 2.0
Wild Dog (2021) HDRip x264 HiNdi Dubb AAC - 1.17GB

Torrent Details For "Heat.1995.WEBRip.2160p.UHD.HDR.DDP5.1.gerald99"

Heat.1995.WEBRip.2160p.UHD.HDR.DDP5.1.gerald99

Download this torrent
Last Checked: 03-08-2022 17:48:39
Tracked: External



Technical Info
Heat.1995.WEBRip.2160p.UHD.HDR.DDP5.1.gerald99 Category

Language

Date Added

Total Size

Completed

Added By

Info Hash

Seeders

Leechers

Views

Movies > HD

English

03-08-2022 15:20:14

11.70 GB

67

gerald99 Trusted Uploader


745fafabbbff5207db5b3b0eaa482257a1868bd4

32

50

19

Last Updated 10-08-2022 23:54:13

Details
Name:Heat.1995.WEBRip.2160p.UHD.HDR.DDP5.1.gerald99
Description:



https://www.imdb.com/title/tt0113277/
1995 R 2h50m Action Crime Drama
Stars Al Pacino Robert De Niro Val Kilmer
Tagline An L.A. Redemption

Storyline
Hunters and their prey--Neil and his professional criminal crew hunt to score big money targets (banks, vaults, armored cars) and are, in turn, hunted by Lt. Vincent Hanna and his team of cops in the Robbery/Homicide police division. A botched job puts Hanna onto their trail while they regroup and try to put together one last big 'retirement' score. Neil and Vincent are similar in many ways, including their troubled personal lives. At a crucial moment in his life, Neil disobeys the dictum taught to him long ago by his criminal mentor--'Never have anything in your life that you can't walk out on in thirty seconds flat, if you spot the heat coming around the corner'--as he falls in love. Thus the stage is set for the suspenseful ending....

Format                                   : Matroska
Format version                           : Version 4
File size                                : 11.7 GiB
Duration                                 : 2 h 50 min
Overall bit rate                         : 9 830 kb/s
Movie name                               : Heat
Encoded date                             : UTC 2022-08-02 18:07:41
Writing application                      : mkvmerge v67.0.0 ('Under Stars') 64-bit
Writing library                          : libebml v1.4.2 + libmatroska v1.6.4
Cover                                    : Yes

Video
ID                                       : 1
Format                                   : HEVC
Format/Info                              : High Efficiency Video Coding
Format profile                           : Main [email protected]@High
HDR format                               : SMPTE ST 2086, HDR10 compatible
Codec ID                                 : V_MPEGH/ISO/HEVC
Duration                                 : 2 h 50 min
Bit rate                                 : 9 571 kb/s
Width                                    : 3 840 pixels
Height                                   : 2 160 pixels
Display aspect ratio                     : 16:9
Frame rate mode                          : Constant
Frame rate                               : 23.976 (24000/1001) FPS
Color space                              : YUV
Chroma subsampling                       : 4:2:0 (Type 2)
Bit depth                                : 10 bits
Bits/(Pixel*Frame)                       : 0.048
Stream size                              : 11.4 GiB (97%)
Title                                    : Heat
Default                                  : Yes
Forced                                   : No
Color range                              : Limited
Color primaries                          : BT.2020
Transfer characteristics                 : PQ
Matrix coefficients                      : BT.2020 non-constant
Mastering display color primaries        : Display P3
Mastering display luminance              : min: 0.0050 cd/m2, max: 1000 cd/m2

Audio
ID                                       : 2
Format                                   : E-AC-3
Format/Info                              : Enhanced AC-3
Commercial name                          : Dolby Digital Plus
Codec ID                                 : A_EAC3
Duration                                 : 2 h 50 min
Bit rate mode                            : Constant
Bit rate                                 : 256 kb/s
Channel(s)                               : 6 channels
Channel layout                           : L R C LFE Ls Rs
Sampling rate                            : 48.0 kHz
Frame rate                               : 31.250 FPS (1536 SPF)
Compression mode                         : Lossy
Stream size                              : 312 MiB (3%)
Title                                    : Dolby Digital Plus 5.1
Language                                 : English
Service kind                             : Complete Main
Default                                  : No
Forced                                   : No

Text
ID                                       : 3
Format                                   : UTF-8
Codec ID                                 : S_TEXT/UTF8
Codec ID/Info                            : UTF-8 Plain Text
Duration                                 : 2 h 41 min
Bit rate                                 : 47 b/s
Count of elements                        : 2179
Stream size                              : 56.0 KiB (0%)
Title                                    : English
Language                                 : English
Default                                  : Yes
Forced                                   : No




Ratings:Not Yet Rated (Log in to rate it)


Tracker:
udp://tracker.opentrackr.org:1337/announce

This Torrent also has backup trackers
URLSeedersLeechersCompleted
udp://tracker.opentrackr.org:1337/announce8714
udp://fe.dealclub.de:6969/announce368
udp://bt2.archive.org:6969/announce222
udp://movies.zsw.ca:6969/announce367
udp://tracker.0x.tf:6969/announce367
udp://tracker.altrosky.nl:6969/announce367
udp://open.stealth.si:80/announce5911
udp://ipv4.tracker.harry.lu:80/announce5811


File List: 


Comments

No comments still posted