Recommended SD TV
Charmed.S04E13.480p.x264-ZMNT
Legacies.S04E19.480p.x264-ZMNT
The.Boys.S03E04.480p.x264-ZMNT
The.Flash.S08E17.480p.x264-ZMNT
Star.Trek.Strange.New.Worlds.S01E06.480p.x264-ZMNT
Obi-Wan.Kenobi.S01E02.480p.x264-ZMNT

Recommended HD Movies
Moonfall.2022.WEBRip.2160p.UHD.HDR.Eng.DD5.1.gerald99
A Journal for Jordan (2021) BluRay 1080p.H264 Ita Eng AC3 5.1 Sub Ita Eng - realDMDJ iDN CreW.
Better Nate Than Ever (2022) Meglio Nate....Disney+ FullHD 1080p.H264 Ita Eng AC3 5.1 Multisub realDMDJ iDN CreW.
Mad.Max.Fury.Road.2015.BRRip.2160p.UHD.HDR.Eng.DD5.1.gerald99
The Contractor (2022) [WEBRip] [1080p] [YTS.MX].
West Side Story (2021) [BluRay] [720p] [YTS.MX].

Recommended Music
MP3 NEW RELEASES 2022 WEEK 06 - [GloDLS]
MP3 NEW RELEASES 2022 WEEK 05 - [GloDLS]
MP3 NEW RELEASES 2022 WEEK 04 - [GloDLS]
MP3 NEW RELEASES 2022 WEEK 03 - [GloDLS]
MP3 NEW RELEASES 2022 WEEK 02 - [GloDLS]
MP3 NEW RELEASES 2022 WEEK 01 - [GloDLS]
MP3 NEW RELEASES 2021 WEEK 40 - [GloDLS]
MP3 NEW RELEASES 2021 WEEK 39 - [GloDLS]

Recommended HD TV
Charmed.S04E13.720p.x265-ZMNT.
Legacies.S04E19.720p.x265-ZMNT.
The.Boys.S03E04.720p.x265-ZMNT.
The.Flash.S08E17.720p.x265-ZMNT.
Star.Trek.Strange.New.Worlds.S01E06.720p.x265-ZMNT.
Obi-Wan.Kenobi.S01E02.720p.x265-ZMNT

HOT Foreign Movies
Rurouni.Kenshin.The.Beginning.Part.2.2021.WEBRip.h264-Dual.YG⭐
Kalki (2019)  HDRip x264 HiNdi Dubb AAC
Sandeep Aur Pinky Faraar (2021) Hindi WebHD 720p AAC 2.0
Sultan (2021) HDRip x264 HiNdi Dubb AAC - 1GB
Hum Bhi Akele Tum Bhi Akele (2019) WebRip 720p Hindi AAC 2.0
Wild Dog (2021) HDRip x264 HiNdi Dubb AAC - 1.17GB

Torrent Details For "Eternal.Sunshine.of.the.Spotless.Mind.2004.BRRip.2..."

Eternal.Sunshine.of.the.Spotless.Mind.2004.BRRip.2...

Download this torrent
Last Checked: 09-08-2022 21:47:47
Tracked: External



Technical Info
Eternal.Sunshine.of.the.Spotless.Mind.2004.BRRip.2160p.UHD.HDR.DD5.1.gerald99 Category

Language

Date Added

Total Size

Completed

Added By

Info Hash

Seeders

Leechers

Views

Movies > HD

English

04-08-2022 15:52:42

7.77 GB

227

gerald99 Trusted Uploader


11c880cb9ba150e3126326af07572ecd5535bf72

20

2

18

Last Updated 10-08-2022 23:45:03

Details
Name:Eternal.Sunshine.of.the.Spotless.Mind.2004.BRRip.2...
Description:



https://www.imdb.com/title/tt0338013/
2004 R 1h48m Drama Romance Sci-Fi
Stars Jim Carrey Kate Winslet Tom Wilkinson
Tagline I already forget how I used to feel about you.

Storyline
Much to his surprise, timid Joel Barish is shocked to discover that the love of his life, sparky Clementine, has had him erased from her memory. To pay her back in the same coin, poor Joel summons up the courage to undergo a painless but intricate medical procedure to do the same, utterly unaware that darkness is an essential part of the light. Now, as hurt and angry Joel's ugly recollections of Clementine gradually fade away, giving way to a soulless black void, suddenly, he begins having second thoughts, toying with the idea of stopping the irreversible process. In the end, is ignorance really bliss?

Format                                   : Matroska
Format version                           : Version 4
File size                                : 7.77 GiB
Duration                                 : 1 h 47 min
Overall bit rate                         : 10.3 Mb/s
Movie name                               : Eternal Sunshine of the Spotless Mind
Encoded date                             : UTC 2022-08-03 14:54:32
Writing application                      : mkvmerge v67.0.0 ('Under Stars') 64-bit
Writing library                          : libebml v1.4.2 + libmatroska v1.6.4

Video
ID                                       : 1
Format                                   : HEVC
Format/Info                              : High Efficiency Video Coding
Format profile                           : Main [email protected]@High
HDR format                               : SMPTE ST 2086, HDR10 compatible
Codec ID                                 : V_MPEGH/ISO/HEVC
Duration                                 : 1 h 47 min
Bit rate                                 : 9 656 kb/s
Width                                    : 3 840 pixels
Height                                   : 2 160 pixels
Display aspect ratio                     : 1.85:1
Frame rate mode                          : Constant
Frame rate                               : 24.000 FPS
Color space                              : YUV
Chroma subsampling                       : 4:2:0 (Type 2)
Bit depth                                : 10 bits
Bits/(Pixel*Frame)                       : 0.049
Stream size                              : 7.27 GiB (94%)
Title                                    : Eternal Sunshine of the Spotless Mind
Default                                  : Yes
Forced                                   : No
Color range                              : Limited
Color primaries                          : BT.2020
Transfer characteristics                 : PQ
Matrix coefficients                      : BT.2020 non-constant
Mastering display color primaries        : Display P3
Mastering display luminance              : min: 0.0001 cd/m2, max: 1000 cd/m2
Maximum Content Light Level              : 1090 cd/m2
Maximum Frame-Average Light Level        : 206 cd/m2

Audio
ID                                       : 2
Format                                   : AC-3
Format/Info                              : Audio Coding 3
Commercial name                          : Dolby Digital
Codec ID                                 : A_AC3
Duration                                 : 1 h 47 min
Bit rate mode                            : Constant
Bit rate                                 : 640 kb/s
Channel(s)                               : 6 channels
Channel layout                           : L R C LFE Ls Rs
Sampling rate                            : 48.0 kHz
Frame rate                               : 31.250 FPS (1536 SPF)
Bit depth                                : 16 bits
Compression mode                         : Lossy
Stream size                              : 493 MiB (6%)
Title                                    : Dolby Digital 5.1
Language                                 : English
Service kind                             : Complete Main
Default                                  : Yes
Forced                                   : No

Text
ID                                       : 3
Format                                   : PGS
Muxing mode                              : zlib
Codec ID                                 : S_HDMV/PGS
Codec ID/Info                            : Picture based subtitle format used on BDs/HD-DVDs
Duration                                 : 1 h 46 min
Bit rate                                 : 46.7 kb/s
Count of elements                        : 3566
Stream size                              : 35.7 MiB (0%)
Title                                    : English SDH
Language                                 : English
Default                                  : No
Forced                                   : No


Ratings:Not Yet Rated (Log in to rate it)


Tracker:
udp://tracker.opentrackr.org:1337/announce

This Torrent also has backup trackers
URLSeedersLeechersCompleted
udp://tracker.opentrackr.org:1337/announce3151
udp://fe.dealclub.de:6969/announce2022
udp://bt2.archive.org:6969/announce200
udp://movies.zsw.ca:6969/announce2018
udp://tracker.0x.tf:6969/announce2020
udp://tracker.altrosky.nl:6969/announce2020
udp://open.stealth.si:80/announce4153
udp://ipv4.tracker.harry.lu:80/announce3043


File List: 


Comments

No comments still posted