Recommended SD TV
Tyler Perrys The Oval S02E09 Political Junkie HDTV x264-CRiMSON
Dancing With The Stars AU S18E03 480p x264-mSD
Supergirl S06E03 480p x264-mSD
The Flash 2014 S07E07 480p x264-mSD
Debris.S01E07.480p.x264-ZMNT
Black.Lightning.S04E07.480p.x264-ZMNT

Recommended HD Movies
Chaos.Walking.2021.WEB-DL.x264.Dual.YG⭐.
Every Breath You Take (2021) [WEBRip] [720p] [YTS.MX]
Willy
Godzilla vs. Kong (2021) [WEBRip] [1080p] [YTS.MX]
Tina (2021) [WEBRip] [720p] [YTS.MX]
The Day Sports Stood Still (2021) [WEBRip] [1080p] [YTS.MX]

Recommended Music
Cactus - 2021 - Tightrope [FLAC] (miok)
MP3 NEW WEEKLY RELEASES 2021 11 - [ ANT ]
MP3 NEW WEEKLY RELEASES 2021 10 - [ ANT ]
MP3 NEW WEEKLY RELEASES 2021 08 - [ ANT ]
MP3 NEW WEEKLY RELEASES 2021 07 - [ ANT ]
MP3 NEW WEEKLY RELEASES 2021 06 - [ ANT ]
MP3 NEW WEEKLY RELEASES 2021 05 - [ ANT ]
MP3 NEW WEEKLY RELEASES 2021 04 - [ ANT ]

Recommended HD TV
Mayans M C S03E06 720p WEB H264-GLHF.
The Flash 2014 S07E07 720p WEB H264-CAKES.
Tyler Perrys The Oval S02E09 Political Junkie 720p HDTV x264-CRiMSON.
Dancing With The Stars AU S18E03 720p HDTV x264-ORENJI.
Supergirl S06E03 720p HDTV x264-SYNCOPY.
This Is Us S05E13 720p HDTV x264-SYNCOPY.

HOT Foreign Movies
My Client
Silence Can You Hear It (2021) [HINDI - 720p - WEB HDRip - x264 - AAC 2.1 - ESub - 2GB] - MAZE
Chakra (2021) [TAMIL - 720p - HDRip - x264 - AAC 2.1 - ESub (HC) - 2GB] - MAZE
Vijay the Master (2021) WebRip x264 HiNdi Dubb AAC[Pherarim]
Madam Chief Minister (2021) Hindi 720p NF WEBRip AAC 5.1 ESub x264- Shadow
Mumbai Saga (2021) Hindi 720p HD Camrip - NO LOGO - 1 2 GB - x264 AAC- Shadow BonsaiHD

HOT WebDL/XvID Movies
Zack.Snyders.Justice.League.2021.HDRip.XviD.AC3-EVO [ A N T ].
A.Taste.of.Christmas.2020.HDRip.XviD.AC3-EVO[TGx]
Tenet.2020.HDRip.XviD.AC3-EVO[TGx]
After We Collided.2020.BDRip.XviD-EVO[TGx]
Life.in.a.Year.2020.HDRip.XviD.AC3-EVO[TGx]
Black.Beauty.2020.HDRip.XviD.AC3-EVO[TGx]

Torrent Details For "Cape Fear - Il promontorio della paura (1991) 720p..."

Cape Fear - Il promontorio della paura (1991) 720p...

Download this torrent
Last Checked: 16-04-2021 07:41:15
Tracked: External



IMDB - Cape Fear
Cape Fear Link

Category

Language

Date Added

Total Size

Completed

Added By

Info Hash

Seeders

Leechers

Views

https://www.imdb.com/title/tt0101540/

Foreign Movies > HD

English

04-03-2021 16:31:04

2.36 GB

309

MIRCrewRS Trusted Uploader


13422bc95e9ccd16898ab23a7af502d92eadccbe

16

14

177

7.3
Votes 175,720
Last Updated 18-04-2021 10:23:32

Details
Name:Cape Fear - Il promontorio della paura (1991) 720p...
Description:
Cape Fear - Il promontorio della paura (1991) 720p H264 Ac3 5.1 Ita Eng Sub Ita Eng-MIRCrew


NO FOUND ONLY ORIGINAL RELEASE


My release is always in double track audio italian and Original audio
for select it use VLC or dvd player home
not use wmp

Cape Fear - Il promontorio della paura (1991)

Quality MIRCrew on HD 720p da 2,3 gb







 

Titolo originale Cape Fear
Lingua originale inglese
Paese di produzione Stati Uniti d'America
Anno 1991
Durata 128 min
Rapporto 2,35 : 1 (anamorfico)
Genere thriller, giallo, orrore, drammatico
Regia Martin Scorsese
Soggetto John D. MacDonald (romanzo)
James R. Webb (sceneggiatura 1962)
Sceneggiatura Wesley Strick



   Robert De Niro: Max Cady
   Nick Nolte: Sam Bowden
   Jessica Lange: Leigh Bowden
   Juliette Lewis: Danielle Bowden
   Joe Don Baker: Claude Kersek
   Robert Mitchum: Tenente Elgart
   Gregory Peck: Lee Heller
   Martin Balsam: giudice
   Illeana Douglas: Lori Davis
   Fred Thompson: Tom Broadbent
   Zully Montero: Graciella



A causa dell'inquinamento atmosferico, nel 2058 il professor John Robinson e la sua famiglia, composta dalla moglie Maureen e dai tre figli, Judy, Penny e Will, vengono scelti per una missione a bordo della Jupiter II. Il loro compito è quello di completare la costruzione di un portale per l'iperspazio in orbita attorno al pianeta Alpha Prime, l'unica speranza per gli abitanti della Terra. La Rivolta Globale, un gruppo terroristico contrario alla missione, riesce però ad assassinare il pilota designato per accompagnare la famiglia Robinson, così il maggiore Don West viene scelto come sostituto.



A convicted rapist, released from prison after serving a fourteen-year sentence, stalks the family of the lawyer who originally defended him

 













General
Unique ID                                : 243224166907515897449828004135077702126 (0xB6FB4547A712D7CB8CCE8173B7E069EE)
Complete name                            : Cape Fear (1991) 720p H264 Ac3 5.1 Ita Eng Sub Ita Eng-MIRCrew\Cape Fear (1991) 720p H264 Ac3 5.1 Ita Eng Sub Ita Eng-MIRCrew.mkv
Format                                   : Matroska
Format version                           : Version 2
File size                                : 2.36 GiB
Duration                                 : 2h 7mn
Overall bit rate                         : 2 643 Kbps
Movie name                               : MIRCrew
Encoded date                             : UTC 2021-03-01T17:19:29Z
Writing application                      : mkvmerge v5.8.0 ('No Sleep / Pillow') built on Sep  2 2012 15:37:04
Writing library                          : Lavf55.12.0

Video
ID                                       : 1
Format                                   : AVC
Format/Info                              : Advanced Video Codec
Format profile                           : [email protected]
Format settings, CABAC                   : Yes
Format settings, ReFrames                : 4 frames
Codec ID                                 : V_MPEG4/ISO/AVC
Duration                                 : 2h 7mn
Bit rate                                 : 1 900 Kbps
Width                                    : 1 280 pixels
Height                                   : 544 pixels
Display aspect ratio                     : 2.35:1
Frame rate                               : 23.976 fps
Color space                              : YUV
Chroma subsampling                       : 4:2:0
Bit depth                                : 8 bits
Scan type                                : Progressive
Bits/(Pixel*Frame)                       : 0.114
Stream size                              : 1.63 GiB (69%)
Title                                    : MIRCrew
Writing library                          : x264 core 142 r2479 dd79a61
Encoding settings                        : cabac=1 / ref=1 / deblock=1:0:0 / analyse=0x1:0x111 / me=hex / subme=2 / psy=1 / psy_rd=1.00:0.00 / mixed_ref=0 / me_range=16 / chroma_me=1 / trellis=0 / 8x8dct=0 / cqm=0 / deadzone=21,11 / fast_pskip=1 / chroma_qp_offset=0 / threads=9 / lookahead_threads=3 / sliced_threads=0 / nr=0 / decimate=1 / interlaced=0 / bluray_compat=0 / constrained_intra=0 / bframes=3 / b_pyramid=2 / b_adapt=1 / b_bias=0 / direct=1 / weightb=1 / open_gop=0 / weightp=1 / keyint=240 / keyint_min=24 / scenecut=40 / intra_refresh=0 / rc_lookahead=10 / rc=abr / mbtree=1 / bitrate=1900 / ratetol=1.0 / qcomp=0.60 / qpmin=0 / qpmax=69 / qpstep=4 / vbv_maxrate=50000 / vbv_bufsize=62500 / nal_hrd=none / filler=0 / ip_ratio=1.40 / aq=1:1.00
Language                                 : Italian
Default                                  : Yes
Forced                                   : No
Color primaries                          : BT.709-5, BT.1361, IEC 61966-2-4, SMPTE RP177
Transfer characteristics                 : BT.709-5, BT.1361
Matrix coefficients                      : BT.709-5, BT.1361, IEC 61966-2-4 709, SMPTE RP177

Audio #1
ID                                       : 2
Format                                   : AC-3
Format/Info                              : Audio Coding 3
Mode extension                           : CM (complete main)
Codec ID                                 : A_AC3
Duration                                 : 2h 7mn
Bit rate mode                            : Constant
Bit rate                                 : 384 Kbps
Channel(s)                               : 6 channels
Channel positions                        : Front: L C R, Side: L R, LFE
Sampling rate                            : 48.0 KHz
Bit depth                                : 16 bits
Compression mode                         : Lossy
Delay relative to video                  : -5ms
Stream size                              : 351 MiB (15%)
Title                                    : Ita Ac3 5.1
Language                                 : Italian
Default                                  : Yes
Forced                                   : No

Audio #2
ID                                       : 3
Format                                   : AC-3
Format/Info                              : Audio Coding 3
Mode extension                           : CM (complete main)
Codec ID                                 : A_AC3
Duration                                 : 2h 7mn
Bit rate mode                            : Constant
Bit rate                                 : 384 Kbps
Channel(s)                               : 6 channels
Channel positions                        : Front: L C R, Side: L R, LFE
Sampling rate                            : 48.0 KHz
Bit depth                                : 16 bits
Compression mode                         : Lossy
Delay relative to video                  : -5ms
Stream size                              : 351 MiB (15%)
Title                                    : Eng Ac3 5.1
Language                                 : English
Default                                  : No
Forced                                   : No

Menu
00:00:00.000                             : :Chapter 1
00:02:40.410                             : :Chapter 2
00:09:59.974                             : :Chapter 3
00:17:51.904                             : :Chapter 4
00:20:58.257                             : :Chapter 5
00:25:09.132                             : :Chapter 6
00:31:32.348                             : :Chapter 7
00:39:39.460                             : :Chapter 8
00:43:46.415                             : :Chapter 9
00:51:30.170                             : :Chapter 10
00:55:33.663                             : :Chapter 11
01:13:41.125                             : :Chapter 12
01:17:34.733                             : :Chapter 13
01:23:52.986                             : :Chapter 14
01:39:05.523                             : :Chapter 15
01:43:44.051                             : :Chapter 16
01:55:23.208                             : :Chapter 17
02:03:17.348                             : :Chapter 18







Ratings:Not Yet Rated (Log in to rate it)


Tracker:
udp://tracker.torrent.eu.org:451/announce

This Torrent also has backup trackers
URLSeedersLeechersCompleted
udp://tracker.torrent.eu.org:451/announce3162
udp://tracker.coppersurfer.tk:6969/announce111
udp://tracker.pirateparty.gr:6969/announce111
udp://tracker.leechers-paradise.org:6969/announce111
udp://tracker.cyberia.is:6969/announce111
udp://tracker.iamhansen.xyz:2000/announce111
udp://p4p.arenabg.com:1337/announce111
udp://explodie.org:6969/announce110
udp://tracker.opentrackr.org:1337/announce111
udp://tracker.tiny-vps.com:6969/announce115
udp://exodus.desync.com:6969/announce1124
udp://ipv4.tracker.harry.lu:80/announce110
udp://open.stealth.si:80/announce11210
udp://9.rarbg.to:2710/announce111


File List: 


Comments

No comments still posted