Recommended SD TV
Charmed.S04E13.480p.x264-ZMNT
Legacies.S04E19.480p.x264-ZMNT
The.Boys.S03E04.480p.x264-ZMNT
The.Flash.S08E17.480p.x264-ZMNT
Star.Trek.Strange.New.Worlds.S01E06.480p.x264-ZMNT
Obi-Wan.Kenobi.S01E02.480p.x264-ZMNT

Recommended HD Movies
Pinocchio (2022) [WEBRip] [1080p] [YTS.MX]
Thor: Love and Thunder (2022) FullHD 1080p.H264 Ita Eng AC3 5.1 Sub Ita Eng realDMDJ DDL Ita
Zombae (2022) [WEBRip] [1080p] [YTS.MX]
Low Life (2022) [WEBRip] [1080p] [YTS.MX]
Cain and Abel (2021) [WEBRip] [1080p] [YTS.MX]
Proverbs 31 (2021) [WEBRip] [720p] [YTS.MX]

Recommended Music
MP3 NEW RELEASES 2022 WEEK 06 - [GloDLS]
MP3 NEW RELEASES 2022 WEEK 05 - [GloDLS]
MP3 NEW RELEASES 2022 WEEK 04 - [GloDLS]
MP3 NEW RELEASES 2022 WEEK 03 - [GloDLS]
MP3 NEW RELEASES 2022 WEEK 02 - [GloDLS]
MP3 NEW RELEASES 2022 WEEK 01 - [GloDLS]
MP3 NEW RELEASES 2021 WEEK 40 - [GloDLS]
MP3 NEW RELEASES 2021 WEEK 39 - [GloDLS]

Recommended HD TV
See.S03E01.720p.x264-FENiX
Charmed.S04E13.720p.x265-ZMNT.
Legacies.S04E19.720p.x265-ZMNT.
The.Boys.S03E04.720p.x265-ZMNT.
The.Flash.S08E17.720p.x265-ZMNT.
Star.Trek.Strange.New.Worlds.S01E06.720p.x265-ZMNT.

HOT Foreign Movies
RRR (2022) Hindi 1080p HDCAM [No LOGO] x264 AAC 2 6GB [HDWebMovies]
Sardar Udham (2021) Hindi 720p AMZN WEB-DL AC3DDP5+1 x264 ESub 1.1GB [Themoviesboss]
Bhuj: The Pride of India (2021) Hindi UNTOUCHED 1080p HS WEB-DL AC3DD5.1 ESub 1.6GB [HDWebMovies]
Rurouni.Kenshin.The.Beginning.Part.2.2021.WEBRip.h264-Dual.YG⭐
Kalki (2019)  HDRip x264 HiNdi Dubb AAC
Sandeep Aur Pinky Faraar (2021) Hindi WebHD 720p AAC 2.0

Torrent Details For "The.Voice.S22E01.720p.WEB.h264-KOGi.DDP5.1.gerald9..."

The.Voice.S22E01.720p.WEB.h264-KOGi.DDP5.1.gerald9...

Download this torrent
Last Checked: 21-09-2022 09:12:25
Tracked: External



Technical Info
The.Voice.S22E01.720p.WEB.h264-KOGi.DDP5.1.gerald99 Category

Language

Date Added

Total Size

Completed

Added By

Info Hash

Seeders

Leechers

Views

TV > HD

English

21-09-2022 04:15:25

2.89 GB

73

gerald99 Trusted Uploader


7f83aa6f95c13bb2b317fe21d9b44f4d68a4148e

44

1

8

Last Updated 27-09-2022 02:16:51

Details
Name:The.Voice.S22E01.720p.WEB.h264-KOGi.DDP5.1.gerald9...
Description:



The Voice Season Premiere S22 E1 | 09/19/22
Blind Auditions Season Premiere
https://www.nbc.com/the-voice
Reality, Live Events and Specials.
Camila Cabello and Gwen Stefani join John Legend and Blake Shelton for Season 22.

The four-time Emmy Award-winning musical competition series "The Voice" returns with the strongest vocalists from across the country invited to compete in the show's newest season, which returns September 19.
Multi-Grammy-nominated Cuban-born singer-songwriter and actress Camila Cabello claims her red chair alongside superstar returning coaches John Legend, Blake Shelton and Gwen Stefani. Carson Daly returns as host for Season 22.
The show's innovative format features four stages of competition: Blind Auditions, Battle Rounds, Knockouts and Live Performance Shows.


Format                                   : Matroska
Format version                           : Version 4
File size                                : 2.89 GiB
Duration                                 : 1 h 24 min
Overall bit rate                         : 4 882 kb/s
Writing application                      : mkvmerge v67.0.0 ('Under Stars') 64-bit
Writing library                          : libebml v1.4.2 + libmatroska v1.6.4

Video
ID                                       : 1
Format                                   : AVC
Format/Info                              : Advanced Video Codec
Format profile                           : [email protected]
Format settings                          : CABAC / 4 Ref Frames
Format settings, CABAC                   : Yes
Format settings, Reference frames        : 4 frames
Codec ID                                 : V_MPEG4/ISO/AVC
Duration                                 : 1 h 24 min
Bit rate                                 : 4 814 kb/s
Width                                    : 1 280 pixels
Height                                   : 720 pixels
Display aspect ratio                     : 16:9
Frame rate mode                          : Constant
Frame rate                               : 23.976 (24000/1001) FPS
Color space                              : YUV
Chroma subsampling                       : 4:2:0
Bit depth                                : 8 bits
Scan type                                : Progressive
Bits/(Pixel*Frame)                       : 0.218
Stream size                              : 2.77 GiB (96%)
Writing library                          : x264 core 164 r3095 baee400
Language                                 : English
Default                                  : Yes
Forced                                   : No

Audio
ID                                       : 2
Format                                   : E-AC-3
Format/Info                              : Enhanced AC-3
Commercial name                          : Dolby Digital Plus
Codec ID                                 : A_EAC3
Duration                                 : 1 h 24 min
Bit rate mode                            : Constant
Bit rate                                 : 192 kb/s
Channel(s)                               : 6 channels
Channel layout                           : L R C LFE Ls Rs
Sampling rate                            : 48.0 kHz
Frame rate                               : 31.250 FPS (1536 SPF)
Compression mode                         : Lossy
Stream size                              : 116 MiB (4%)
Language                                 : English
Service kind                             : Complete Main
Default                                  : Yes
Forced                                   : No

Text #1
ID                                       : 3
Format                                   : UTF-8
Codec ID                                 : S_TEXT/UTF8
Codec ID/Info                            : UTF-8 Plain Text
Duration                                 : 1 h 24 min
Bit rate                                 : 110 b/s
Count of elements                        : 2047
Stream size                              : 68.6 KiB (0%)
Title                                    : English
Language                                 : English
Default                                  : No
Forced                                   : No

Text #2
ID                                       : 4
Format                                   : UTF-8
Codec ID                                 : S_TEXT/UTF8
Codec ID/Info                            : UTF-8 Plain Text
Duration                                 : 1 h 24 min
Bit rate                                 : 108 b/s
Count of elements                        : 2018
Stream size                              : 67.3 KiB (0%)
Title                                    : Spanish
Language                                 : Spanish
Default                                  : No
Forced                                   : No

Screens:







Ratings:Not Yet Rated (Log in to rate it)


Tracker:
udp://tracker.opentrackr.org:1337/announce

This Torrent also has backup trackers
URLSeedersLeechersCompleted
udp://tracker.opentrackr.org:1337/announce2012
udp://fe.dealclub.de:6969/announce709
udp://bt2.archive.org:6969/announce402
udp://movies.zsw.ca:6969/announce7011
udp://tracker.0x.tf:6969/announce7010
udp://tracker.altrosky.nl:6969/announce709
udp://open.stealth.si:80/announce2110
udp://ipv4.tracker.harry.lu:80/announce8010


File List: 


Comments

No comments still posted