Recommended HD Movies
Inheritance.2020.1080p.HDRip.X264.AC3-EVO
Zombieland.Double.Tap.2019.1080p.BluRay.H264.AAC-MRSK.
The Willoughbys 2020 1080p.WEB.H264.Dual.YG.
Trolls.World.Tour.2020.WEB.H264.Dual.YG⭐.
Extraction (2020) English UNTOUCHED 720p NF WEBRip DD-5.1 ⭐800 MB⭐ ESub x264 - Shadow.
Bhoot Part One - The Haunted Ship (2020) Hindi 720p AMZN WEBRip ⭐980 MB⭐ DD-5.1 ESub x264 - Shadow.

HOT WebDL/XvID Movies
Miss Fisher and the Crypt of Tears.2020.BDRip.XviD.AC3-EVO.
Justice.League.Dark.Apokolips.War.2020.HDRip.XviD.AC3-EVO.
Remember.Me.2019.HDRip.XviD.AC3-EVO.
Wretch.2019.HDRip.XviD.AC3-EVO.
Inheritance.2020.HDRip.XviD.AC3-EVO
Greed.2020.HDRip.XviD.AC3-EVO.

Recommended HD TV
Marvels Agents of S H I E L D S07E06 720p HEVC x265-MeGusta.
Paramedics S02E15 720p HDTV x264-CBFM.
Legendary S01E03 720p WEB H264-BTX.
The 100 S07E03 720p WEB H264-BTX.
Marvels Agents of S H I E L D S07E02 720p HDTV x264-AVS.
The Last O G S03E09 720p HDTV x264-AVS.

HOT Foreign Movies
Chaman Bahar (2020) Hindi 720p NF WEBRip ⭐800 MB⭐ DD- 5.1 ESub x264 - Shadow (BonsaiHD)
Kadakh (2020) Hindi 720p SonyLiv WEB-DL ⭐1.1 GB⭐ AAC DD- 2.0 ESub x264 - Shadow (BonsaiHD)
Red Oliender
Rainbow Jelly (2018) Bengali 720p NF WEBRip 1 GB DD- 5.1 ESub x264 - Shadow (BonsaiHD)
Da 5 Bloods (2020) English 720p NF WEBRip ⭐1.4 GB⭐ DD-5.1 ESub x264 - Shadow (BonsaiHD)
Axone (2019) Hindi 720p NF WEBRip 900 MB DD-5.1 MSub x264 - Shadow (BonsaiHD)

Recommended SD TV
Marvels.Agents.of.S.H.I.E.L.D.S07E06.480p.x264-ZMNT
Legendary S01E03 WEB H264-BTX
The 100 S07E03 WEB H264-ALiGN
Marvels Agents of S H I E L D S07E02 HDTV x264-SVA
The Last O G S03E09 HDTV x264-SVA
DCs.Legends.of.Tomorrow.S05E15.480p.x264-ZMNT

Recommended Music
MP3 NEW RELEASES 2020 WEEK 21 - [GloDLS]
MP3 NEW RELEASES 2020 WEEK 20 - [GloDLS]
MP3 NEW RELEASES 2020 WEEK 19 - [GloDLS]
MutzNutz Music Pack 083 2020 - [ ANT ]
Mp3 New Albums 2020 Week 20 - [ ANT ]
MutzNutz Music Pack 082 2020 - [ ANT ]
VA - MP3 Music Pack 027 (2020) - [ ANT ]
MP3 Weekly Collection Vol 33 2020 - [ ANT ]


Torrent Details For "Bheeshma (2020) Telugu UNTOUCHED 720p NF WEB-DL x2..."

Bheeshma (2020) Telugu UNTOUCHED 720p NF WEB-DL x2...

Download this torrent
Last Checked: 01-07-2020 00:37:20
Tracked: External



IMDB - Bheeshma
Bheeshma Link

Category

Language

Date Added

Total Size

Completed

Added By

Info Hash

Seeders

Leechers

Views

https://www.imdb.com/title/tt11199356/

Foreign Movies > HD



24-04-2020 17:13:47

1.20 GB

19,564

Suryadipta Trusted Uploader


b411d482b3cc570251ba0c719b62b577bdc7d125

105

41

21

6.7
Votes 1,230
Last Updated 04-07-2020 23:00:00

Details
Name:Bheeshma (2020) Telugu UNTOUCHED 720p NF WEB-DL x2...
Description:

Visit Our Site https://hdwebmovies.pw




Movie name :

Bheeshma (2020) Telugu UNTOUCHED 720p NF WEB-DL x264 AAC DD-5.1 ESub 1.2GB [HDWebMovies]

General
Format : Matroska
Format version : Version 4
File size : 1.20 GiB
Duration : 2 h 18 min
Overall bit rate : 1 243 kb/s
Encoded date : UTC 2020-04-24 15:19:01
Writing application : mkvmerge v31.0.0 ('Dolores In A Shoestand') 64-bit
Writing library : libebml v1.3.6 + libmatroska v1.4.9 / Lavf58.29.100

Video
ID : 1
Format : AVC
Format/Info : Advanced Video Codec
Format profile : [email protected]
Format settings : CABAC / 4 Ref Frames
Format settings, CABAC : Yes
Format settings, Reference frames : 4 frames
Codec ID : V_MPEG4/ISO/AVC
Duration : 2 h 18 min
Bit rate : 1 050 kb/s
Width : 1 280 pixels
Height : 536 pixels
Display aspect ratio : 2.40:1
Frame rate mode : Constant
Frame rate : 24.000 FPS
Color space : YUV
Chroma subsampling : 4:2:0
Bit depth : 8 bits
Scan type : Progressive
Bits/(Pixel*Frame) : 0.064
Stream size : 1.01 GiB (84%)
Default : Yes
Forced : No
Color range : Limited
Color primaries : BT.709
Transfer characteristics : BT.709
Matrix coefficients : BT.709

Audio
ID : 2
Format : AAC LC
Format/Info : Advanced Audio Codec Low Complexity
Codec ID : A_AAC-2
Duration : 2 h 18 min
Bit rate : 192 kb/s
Channel(s) : 6 channels
Channel layout : C L R Ls Rs LFE
Sampling rate : 48.0 kHz
Frame rate : 46.875 FPS (1024 SPF)
Compression mode : Lossy
Delay relative to video : -21 ms
Stream size : 190 MiB (15%)
Language : Telugu
Default : Yes
Forced : No

Text
ID : 3
Format : ASS
Codec ID : S_TEXT/ASS
Codec ID/Info : Advanced Sub Station Alpha
Duration : 2 h 16 min
Bit rate : 106 b/s
Count of elements : 1767
Compression mode : Lossless
Stream size : 106 KiB (0%)
Language : English
Default : No
Forced : No













Ratings:Not Yet Rated (Log in to rate it)


Tracker:
udp://tracker.cyberia.is:6969/announce

This Torrent also has backup trackers
URLSeedersLeechersCompleted
udp://tracker.cyberia.is:6969/announce16510,079
udp://exodus.desync.com:6969/announce942,230
udp://9.rarbg.to:2930/announce111
udp://tracker.iamhansen.xyz:2000/announce111
udp://tracker.opentrackr.org:1337/announce1242,370
udp://open.demonii.si:1337/announce111
udp://tracker.tiny-vps.com:6969/announce124125
udp://tracker.pirateparty.gr:6969/announce111
udp://denis.stalker.upeer.me:6969/announce111
udp://ipv4.tracker.harry.lu:80/announce330
udp://tracker.torrent.eu.org:451/announce104377
udp://tracker.leechers-paradise.org:6969/announce1542,225
udp://p4p.arenabg.com:1337/announce12465
udp://open.stealth.si:80/announce1042,088
udp://explodie.org:6969/announce100


File List: 


Comments

No comments still posted