Recommended SD TV
Tyler Perrys The Oval S02E09 Political Junkie HDTV x264-CRiMSON
Dancing With The Stars AU S18E03 480p x264-mSD
Supergirl S06E03 480p x264-mSD
The Flash 2014 S07E07 480p x264-mSD
Debris.S01E07.480p.x264-ZMNT
Black.Lightning.S04E07.480p.x264-ZMNT

Recommended HD Movies
Chaos.Walking.2021.WEB-DL.x264.Dual.YG⭐.
Every Breath You Take (2021) [WEBRip] [720p] [YTS.MX]
Willy
Godzilla vs. Kong (2021) [WEBRip] [1080p] [YTS.MX]
Tina (2021) [WEBRip] [720p] [YTS.MX]
The Day Sports Stood Still (2021) [WEBRip] [1080p] [YTS.MX]

Recommended Music
Cactus - 2021 - Tightrope [FLAC] (miok)
MP3 NEW WEEKLY RELEASES 2021 11 - [ ANT ]
MP3 NEW WEEKLY RELEASES 2021 10 - [ ANT ]
MP3 NEW WEEKLY RELEASES 2021 08 - [ ANT ]
MP3 NEW WEEKLY RELEASES 2021 07 - [ ANT ]
MP3 NEW WEEKLY RELEASES 2021 06 - [ ANT ]
MP3 NEW WEEKLY RELEASES 2021 05 - [ ANT ]
MP3 NEW WEEKLY RELEASES 2021 04 - [ ANT ]

Recommended HD TV
Mayans M C S03E06 720p WEB H264-GLHF.
The Flash 2014 S07E07 720p WEB H264-CAKES.
Tyler Perrys The Oval S02E09 Political Junkie 720p HDTV x264-CRiMSON.
Dancing With The Stars AU S18E03 720p HDTV x264-ORENJI.
Supergirl S06E03 720p HDTV x264-SYNCOPY.
This Is Us S05E13 720p HDTV x264-SYNCOPY.

HOT Foreign Movies
My Client
Silence Can You Hear It (2021) [HINDI - 720p - WEB HDRip - x264 - AAC 2.1 - ESub - 2GB] - MAZE
Chakra (2021) [TAMIL - 720p - HDRip - x264 - AAC 2.1 - ESub (HC) - 2GB] - MAZE
Vijay the Master (2021) WebRip x264 HiNdi Dubb AAC[Pherarim]
Madam Chief Minister (2021) Hindi 720p NF WEBRip AAC 5.1 ESub x264- Shadow
Mumbai Saga (2021) Hindi 720p HD Camrip - NO LOGO - 1 2 GB - x264 AAC- Shadow BonsaiHD

HOT WebDL/XvID Movies
Zack.Snyders.Justice.League.2021.HDRip.XviD.AC3-EVO [ A N T ].
A.Taste.of.Christmas.2020.HDRip.XviD.AC3-EVO[TGx]
Tenet.2020.HDRip.XviD.AC3-EVO[TGx]
After We Collided.2020.BDRip.XviD-EVO[TGx]
Life.in.a.Year.2020.HDRip.XviD.AC3-EVO[TGx]
Black.Beauty.2020.HDRip.XviD.AC3-EVO[TGx]

Torrent Details For "Mumbai Saga (2021) Hindi 720p HD Camrip - NO LOGO ..."

Mumbai Saga (2021) Hindi 720p HD Camrip - NO LOGO ...

Download this torrent
Last Checked: 17-04-2021 01:32:27
Tracked: External



IMDB - Mumbai Saga
Mumbai Saga Link

Category

Language

Date Added

Total Size

Completed

Added By

Info Hash

Seeders

Leechers

Views

tt10483386

Foreign Movies > SD

Hindi

19-03-2021 23:21:56

1.23 GB

105,948

trueHD Trusted Uploader


158c15d2d30a57d49e3e34307c4e6122971f7367

1,996

163

106

Last Updated 18-04-2021 10:13:46

Details
Name:Mumbai Saga (2021) Hindi 720p HD Camrip - NO LOGO ...
Description:



General
Unique ID                                : 212487326661396182573963281125937650387 (0x9FDB920DBAC8FBB82F53BC4A16EE1AD3)
Complete name                            : Mumbai Saga (2021) Hindi 720p HD Camrip - NO LOGO - x264 AAC- Shadow.BonsaiHD.mkv
Format                                   : Matroska
Format version                           : Version 4
File size                                : 1.23 GiB
Duration                                 : 2 h 3 min
Overall bit rate                         : 1 433 kb/s
Movie name                               : -: Mumbai Saga 2021 Hindi :- Encoded By :- Shadow
Encoded date                             : UTC 2021-03-19 22:59:55
Writing application                      : mkvmerge v51.0.0 ('I Wish') 64-bit
Writing library                          : libebml v1.4.0 + libmatroska v1.6.2

Video
ID                                       : 1
Format                                   : AVC
Format/Info                              : Advanced Video Codec
Format profile                           : [email protected]
Format settings                          : CABAC / 1 Ref Frames
Format settings, CABAC                   : Yes
Format settings, Reference frames        : 1 frame
Format settings, GOP                     : M=1, N=30
Codec ID                                 : V_MPEG4/ISO/AVC
Duration                                 : 2 h 3 min
Bit rate                                 : 1 302 kb/s
Width                                    : 1 280 pixels
Height                                   : 720 pixels
Display aspect ratio                     : 16:9
Frame rate mode                          : Constant
Frame rate                               : 25.000 FPS
Color space                              : YUV
Chroma subsampling                       : 4:2:0
Bit depth                                : 8 bits
Scan type                                : Progressive
Bits/(Pixel*Frame)                       : 0.057
Stream size                              : 1.12 GiB (91%)
Title                                    : Encoded By :- Shadow
Default                                  : Yes
Forced                                   : No
Color range                              : Limited
Color primaries                          : BT.709
Transfer characteristics                 : BT.709
Matrix coefficients                      : BT.709

Audio
ID                                       : 2
Format                                   : AAC LC
Format/Info                              : Advanced Audio Codec Low Complexity
Codec ID                                 : A_AAC-2
Duration                                 : 2 h 3 min
Bit rate                                 : 128 kb/s
Channel(s)                               : 2 channels
Channel layout                           : L R
Sampling rate                            : 48.0 kHz
Frame rate                               : 46.875 FPS (1024 SPF)
Compression mode                         : Lossy
Stream size                              : 113 MiB (9%)
Title                                    : Encoded By :- Shadow
Language                                 : Hindi
Default                                  : Yes
Forced                                   : No











Ratings:Not Yet Rated (Log in to rate it)


Tracker:
udp://tracker.coppersurfer.tk:6969/announce

This Torrent also has backup trackers
URLSeedersLeechersCompleted
udp://tracker.coppersurfer.tk:6969/announce111
udp://tracker.leechers-paradise.org:6969/announce111
http://tracker.foreverpirates.co:80/announce3785676,949
udp://tracker.cyberia.is:6969/announce111
udp://tracker.birkenwald.de:6969/announce111
udp://explodie.org:6969/announce87130
udp://tracker.opentrackr.org:1337/announce18216336
udp://tracker.tiny-vps.com:6969/announce29212738
udp://exodus.desync.com:6969/announce227153,323
udp://tracker.torrent.eu.org:451/announce267214,995
udp://tracker.moeking.me:6969/announce276123,217
udp://ipv4.tracker.harry.lu:80/announce111
udp://open.stealth.si:80/announce2641214,424
udp://9.rarbg.to:2710/announce111
udp://opentor.org:2710/announce1701,960


File List: 


Comments

<< Previous      Next >>
1 - 1

[Report] Posted: 07-04-2021 at 21:54:48
Mel16547901



Uploaded: 0.00 B
Downloaded: 0.00 B
Ratio: ---

Thanks :!  :)

1 - 1
<< Previous      Next >>