Recommended SD TV
Magnum.P.I.S03E14.480p.x264-ZMNT
Van.Helsing.S05E01.480p.x264-ZMNT
The.Falcon.and.The.Winter.Soldier.S01E05.480p.x264-ZMNT
Legacies.S03E10.480p.x264-ZMNT
For.All.Mankind.S02E09.480p.x264-ZMNT
Manifest.S03E03.480p.x264-ZMNT

Recommended HD Movies
Chaos.Walking.2021.WEB-DL.x264.Dual.YG⭐.
Every Breath You Take (2021) [WEBRip] [720p] [YTS.MX]
Willy
Godzilla vs. Kong (2021) [WEBRip] [1080p] [YTS.MX]
Tina (2021) [WEBRip] [720p] [YTS.MX]
The Day Sports Stood Still (2021) [WEBRip] [1080p] [YTS.MX]

Recommended Music
Cactus - 2021 - Tightrope [FLAC] (miok)
MP3 NEW WEEKLY RELEASES 2021 11 - [ ANT ]
MP3 NEW WEEKLY RELEASES 2021 10 - [ ANT ]
MP3 NEW WEEKLY RELEASES 2021 08 - [ ANT ]
MP3 NEW WEEKLY RELEASES 2021 07 - [ ANT ]
MP3 NEW WEEKLY RELEASES 2021 06 - [ ANT ]
MP3 NEW WEEKLY RELEASES 2021 05 - [ ANT ]
MP3 NEW WEEKLY RELEASES 2021 04 - [ ANT ]

Recommended HD TV
Magnum.P.I.S03E14.720p.x265-ZMNT.
Van.Helsing.S05E01.720p.x265-ZMNT.
The.Falcon.and.The.Winter.Soldier.S01E05.720p.x265-ZMNT.
Legacies.S03E10.720p.x265-ZMNT.
For.All.Mankind.S02E09.720p.x265-ZMNT.
Manifest.S03E03.720p.x265-ZMNT.

HOT Foreign Movies
My Client
Silence Can You Hear It (2021) [HINDI - 720p - WEB HDRip - x264 - AAC 2.1 - ESub - 2GB] - MAZE
Chakra (2021) [TAMIL - 720p - HDRip - x264 - AAC 2.1 - ESub (HC) - 2GB] - MAZE
Vijay the Master (2021) WebRip x264 HiNdi Dubb AAC[Pherarim]
Madam Chief Minister (2021) Hindi 720p NF WEBRip AAC 5.1 ESub x264- Shadow
Mumbai Saga (2021) Hindi 720p HD Camrip - NO LOGO - 1 2 GB - x264 AAC- Shadow BonsaiHD

HOT WebDL/XvID Movies
Zack.Snyders.Justice.League.2021.HDRip.XviD.AC3-EVO [ A N T ].
A.Taste.of.Christmas.2020.HDRip.XviD.AC3-EVO[TGx]
Tenet.2020.HDRip.XviD.AC3-EVO[TGx]
After We Collided.2020.BDRip.XviD-EVO[TGx]
Life.in.a.Year.2020.HDRip.XviD.AC3-EVO[TGx]
Black.Beauty.2020.HDRip.XviD.AC3-EVO[TGx]

Torrent Details For "Baba Yaga: Terror of the Dark Forest - incubo nell..."

Baba Yaga: Terror of the Dark Forest - incubo nell...

Download this torrent
Last Checked: 19-04-2021 09:55:29
Tracked: External



Technical Info
Baba Yaga: Terror of the Dark Forest - incubo nella foresta oscura (2020) 720p H264 Ac3 5.1 Ita Rus Sub Ita Eng-MIRCrew Category

Language

Date Added

Total Size

Completed

Added By

Info Hash

Seeders

Leechers

Views

Foreign Movies > HD

English

31-03-2021 16:22:06

1.87 GB

863

MIRCrewRS Trusted Uploader


ee47a0fe284ff838af50379d1f82f122c20d2c44

22

16

67

Last Updated 19-04-2021 13:37:15

Details
Name:Baba Yaga: Terror of the Dark Forest - incubo nell...
Description:
Baba Yaga: Terror of the Dark Forest - incubo nella foresta oscura (2020) 720p H264 Ac3 5.1 Ita Rus Sub Ita Eng-MIRCrew


NO FOUND ONLY ORIGINAL RELEASE


My release is always in double track audio italian and Original audio
for select it use VLC or dvd player home
not use wmp

ENGLISH SUBTITLE INSIDE

Baba Yaga. incubo nella foresta oscura - Terror of the Dark Forest  (2020)

Quality MIRCrew on HD 720p da 1,8 gb







 

Titolo originale: Baba Yaga: Terror of the Dark Forest
Regia: Svyatoslav Podgayevskiy
Paese: Russia
Anno: 2020
Produzione: Midnight Factory, 2021
Distribuzione: Koch Media
Durata: 97 min



Maryana Spivak, Aleksey Rozin, Svetlana Ustinova



Una giovane famiglia assume una tata perché si prenda cura dei propri fi gli ma la tutrice inizia a mostrare comportamenti allarmanti e innaturali. Quando i suoi genitori non credono alle sue affermazioni, il fi glio Egor scopre che la tata e la sua sorellina sono scomparse senza lasciare traccia.



When Egor's mom dies, he gets a stepmom and then a baby half sister. Things get seriously twisted when his dad gets a hot nanny, who's the witch, Baba Yaga. .

 













General

Complete name                            : Baba Yaga. incubo nella foresta oscura (2020) 720p H264 Ac3 5.1 Ita Rus Sub Ita Eng-MIRCrew\Baba Yaga. incubo nella foresta oscura (2020) 720p H264 Ac3 5.1 Ita Rus Sub Ita Eng-MIRCrew.mkv
Format                                   : Matroska
Format version                           : Version 2
File size                                : 1.87 GiB
Duration                                 : 1h 36mn
Overall bit rate                         : 2 757 Kbps
Movie name                               : MIRCrew
Encoded date                             : UTC 2021-03-07 23:38:04
Writing application                      : mkvmerge v5.8.0 ('No Sleep / Pillow') built on Sep  2 2012 15:37:04
Writing library                          : Lavf54.63.100
COMMENT                                  : MIRcrew

Video
ID                                       : 1
Format                                   : AVC
Format/Info                              : Advanced Video Codec
Format profile                           : [email protected]
Format settings, CABAC                   : Yes
Format settings, ReFrames                : 2 frames
Codec ID                                 : V_MPEG4/ISO/AVC
Duration                                 : 1h 36mn
Bit rate                                 : 1 806 Kbps
Nominal bit rate                         : 1 900 Kbps
Width                                    : 1 264 pixels
Height                                   : 528 pixels
Display aspect ratio                     : 2.40:1
Original display aspect ratio            : 2.40:1
Frame rate mode                          : Variable
Frame rate                               : 24.000 fps
Color space                              : YUV
Chroma subsampling                       : 4:2:0
Bit depth                                : 8 bits
Scan type                                : Progressive
Bits/(Pixel*Frame)                       : 0.113
Stream size                              : 1.22 GiB (66%)
Title                                    : MIRCrew
Writing library                          : x264 core 130 r2273
Encoding settings                        : cabac=1
Language                                 : Italian
Default                                  : Yes
Forced                                   : No
DURATION                                 : 01:36:35.000000000


Audio #1
ID                                       : 2
Format                                   : AC-3
Format/Info                              : Audio Coding 3
Mode extension                           : CM (complete main)
Codec ID                                 : A_AC3
Duration                                 : 1h 36mn
Bit rate mode                            : Constant
Bit rate                                 : 448 Kbps
Channel(s)                               : 6 channels
Channel positions                        : Front: L C R, Side: L R, LFE
Sampling rate                            : 48.0 KHz
Bit depth                                : 16 bits
Compression mode                         : Lossy
Delay relative to video                  : 6s 28ms
Stream size                              : 310 MiB (16%)
Title                                    : Ita Ac3 5.1
Language                                 : Italian
Default                                  : Yes
Forced                                   : No
DURATION                                 : 01:36:37.952000000


Audio #2
ID                                       : 3
Format                                   : AC-3
Format/Info                              : Audio Coding 3
Mode extension                           : CM (complete main)
Codec ID                                 : A_AC3
Duration                                 : 1h 36mn
Bit rate mode                            : Constant
Bit rate                                 : 448 Kbps
Channel(s)                               : 6 channels
Channel positions                        : Front: L C R, Side: L R, LFE
Sampling rate                            : 48.0 KHz
Bit depth                                : 16 bits
Compression mode                         : Lossy
Delay relative to video                  : -5ms
Stream size                              : 310 MiB (16%)
Title                                    : Rus Ac3 5.1
Language                                 : English
Default                                  : No
Forced                                   : No
DURATION                                 : 01:36:50.656000000


Menu
00:00:00.000                             : :Chapter 1
00:08:49.458                             : :Chapter 2
00:16:28.500                             : :Chapter 3
00:23:30.417                             : :Chapter 4
00:31:04.542                             : :Chapter 5
00:39:24.292                             : :Chapter 6
00:49:02.042                             : :Chapter 7
00:56:03.333                             : :Chapter 8
01:03:18.250                             : :Chapter 9
01:13:20.667                             : :Chapter 10
01:21:40.583                             : :Chapter 11
01:32:55.875                             : :Chapter 12






Ratings:Not Yet Rated (Log in to rate it)


Tracker:
udp://tracker.torrent.eu.org:451/announce

This Torrent also has backup trackers
URLSeedersLeechersCompleted
udp://tracker.torrent.eu.org:451/announce62584
udp://tracker.coppersurfer.tk:6969/announce111
udp://tracker.pirateparty.gr:6969/announce111
udp://tracker.leechers-paradise.org:6969/announce111
udp://tracker.cyberia.is:6969/announce111
udp://tracker.iamhansen.xyz:2000/announce111
udp://p4p.arenabg.com:1337/announce111
udp://explodie.org:6969/announce111
udp://tracker.opentrackr.org:1337/announce120
udp://tracker.tiny-vps.com:6969/announce111
udp://exodus.desync.com:6969/announce21103
udp://ipv4.tracker.harry.lu:80/announce110
udp://open.stealth.si:80/announce31167
udp://9.rarbg.to:2710/announce111


File List: 


Comments

No comments still posted