Recommended HD Movies
Inheritance.2020.1080p.HDRip.X264.AC3-EVO
Zombieland.Double.Tap.2019.1080p.BluRay.H264.AAC-MRSK.
The Willoughbys 2020 1080p.WEB.H264.Dual.YG.
Trolls.World.Tour.2020.WEB.H264.Dual.YG⭐.
Extraction (2020) English UNTOUCHED 720p NF WEBRip DD-5.1 ⭐800 MB⭐ ESub x264 - Shadow.
Bhoot Part One - The Haunted Ship (2020) Hindi 720p AMZN WEBRip ⭐980 MB⭐ DD-5.1 ESub x264 - Shadow.

HOT WebDL/XvID Movies
Miss Fisher and the Crypt of Tears.2020.BDRip.XviD.AC3-EVO.
Justice.League.Dark.Apokolips.War.2020.HDRip.XviD.AC3-EVO.
Remember.Me.2019.HDRip.XviD.AC3-EVO.
Wretch.2019.HDRip.XviD.AC3-EVO.
Inheritance.2020.HDRip.XviD.AC3-EVO
Greed.2020.HDRip.XviD.AC3-EVO.

Recommended HD TV
Marvels Agents of S H I E L D S07E06 720p HEVC x265-MeGusta.
Paramedics S02E15 720p HDTV x264-CBFM.
Legendary S01E03 720p WEB H264-BTX.
The 100 S07E03 720p WEB H264-BTX.
Marvels Agents of S H I E L D S07E02 720p HDTV x264-AVS.
The Last O G S03E09 720p HDTV x264-AVS.

HOT Foreign Movies
Chaman Bahar (2020) Hindi 720p NF WEBRip ⭐800 MB⭐ DD- 5.1 ESub x264 - Shadow (BonsaiHD)
Kadakh (2020) Hindi 720p SonyLiv WEB-DL ⭐1.1 GB⭐ AAC DD- 2.0 ESub x264 - Shadow (BonsaiHD)
Red Oliender
Rainbow Jelly (2018) Bengali 720p NF WEBRip 1 GB DD- 5.1 ESub x264 - Shadow (BonsaiHD)
Da 5 Bloods (2020) English 720p NF WEBRip ⭐1.4 GB⭐ DD-5.1 ESub x264 - Shadow (BonsaiHD)
Axone (2019) Hindi 720p NF WEBRip 900 MB DD-5.1 MSub x264 - Shadow (BonsaiHD)

Recommended SD TV
Marvels.Agents.of.S.H.I.E.L.D.S07E06.480p.x264-ZMNT
Legendary S01E03 WEB H264-BTX
The 100 S07E03 WEB H264-ALiGN
Marvels Agents of S H I E L D S07E02 HDTV x264-SVA
The Last O G S03E09 HDTV x264-SVA
DCs.Legends.of.Tomorrow.S05E15.480p.x264-ZMNT

Recommended Music
MP3 NEW RELEASES 2020 WEEK 21 - [GloDLS]
MP3 NEW RELEASES 2020 WEEK 20 - [GloDLS]
MP3 NEW RELEASES 2020 WEEK 19 - [GloDLS]
MutzNutz Music Pack 083 2020 - [ ANT ]
Mp3 New Albums 2020 Week 20 - [ ANT ]
MutzNutz Music Pack 082 2020 - [ ANT ]
VA - MP3 Music Pack 027 (2020) - [ ANT ]
MP3 Weekly Collection Vol 33 2020 - [ ANT ]


Torrent Details For "Aamis (2019) Assamese 720p WEB-DL x264 AAC DD-2.0 ..."

Aamis (2019) Assamese 720p WEB-DL x264 AAC DD-2.0 ...

Download this torrent
Last Checked: 01-07-2020 10:09:20
Tracked: External



Technical Info
Aamis (2019) Assamese 720p WEB-DL x264 AAC DD-2.0 ESub 1.3GB [HDWebMovies] Category

Language

Date Added

Total Size

Completed

Added By

Info Hash

Seeders

Leechers

Views

Foreign Movies > HD

Hindi

27-04-2020 14:40:46

1.32 GB

24,823

Suryadipta Trusted Uploader


ac8b98fd566f9db81e756c31b3a21e568e8a926e

1,464

74

57

Last Updated 04-07-2020 22:59:37

Details
Name:Aamis (2019) Assamese 720p WEB-DL x264 AAC DD-2.0 ...
Description:

Visit Our Site https://hdwebmovies.pw




Movie name :

Aamis (2019) Assamese 720p WEB-DL x264 AAC DD-2.0 ESub 1.3GB [HDWebMovies]

General
Format : Matroska
Format version : Version 4
File size : 1.32 GiB
Duration : 1 h 47 min
Overall bit rate : 1 758 kb/s
Encoded date : UTC 2020-04-27 12:37:13
Writing application : mkvmerge v31.0.0 ('Dolores In A Shoestand') 64-bit
Writing library : libebml v1.3.6 + libmatroska v1.4.9

Video
ID : 1
Format : AVC
Format/Info : Advanced Video Codec
Format profile : [email protected]
Format settings : CABAC / 5 Ref Frames
Format settings, CABAC : Yes
Format settings, Reference frames : 5 frames
Codec ID : V_MPEG4/ISO/AVC
Duration : 1 h 47 min
Bit rate : 1 503 kb/s
Width : 1 280 pixels
Height : 720 pixels
Display aspect ratio : 16:9
Frame rate mode : Constant
Frame rate : 24.000 FPS
Color space : YUV
Chroma subsampling : 4:2:0
Bit depth : 8 bits
Scan type : Progressive
Bits/(Pixel*Frame) : 0.068
Stream size : 1.13 GiB (85%)
Writing library : x264 core 157 r10 d4099dd
Default : Yes
Forced : No
Color range : Limited
Color primaries : BT.709
Transfer characteristics : BT.709
Matrix coefficients : BT.709

Audio
ID : 2
Format : AAC LC
Format/Info : Advanced Audio Codec Low Complexity
Codec ID : A_AAC-2
Duration : 1 h 47 min
Bit rate : 253 kb/s
Channel(s) : 2 channels
Channel layout : L R
Sampling rate : 48.0 kHz
Frame rate : 46.875 FPS (1024 SPF)
Compression mode : Lossy
Stream size : 195 MiB (14%)
Language : Assamese
Default : Yes
Forced : No













Ratings:Not Yet Rated (Log in to rate it)


Tracker:
udp://tracker.coppersurfer.tk:6969/announce

This Torrent also has backup trackers
URLSeedersLeechersCompleted
udp://tracker.coppersurfer.tk:6969/announce16610114
udp://tracker.leechers-paradise.org:6969/announce15178,794
udp://tracker.cyberia.is:6969/announce13465,979
udp://tracker.iamhansen.xyz:2000/announce111
udp://p4p.arenabg.com:1337/announce1296286
udp://explodie.org:6969/announce3740
udp://tracker.opentrackr.org:1337/announce13363,461
udp://tracker.tiny-vps.com:6969/announce1527316
udp://exodus.desync.com:6969/announce10221,811
udp://tracker.torrent.eu.org:451/announce1497658
udp://tracker.moeking.me:6969/announce1395411
udp://ipv4.tracker.harry.lu:80/announce3840
udp://open.stealth.si:80/announce12262,673
udp://9.rarbg.to:2710/announce111
udp://opentor.org:2710/announce102318


File List: 


Comments

No comments still posted