Recommended HD Movies
Inheritance.2020.1080p.HDRip.X264.AC3-EVO
Zombieland.Double.Tap.2019.1080p.BluRay.H264.AAC-MRSK.
The Willoughbys 2020 1080p.WEB.H264.Dual.YG.
Trolls.World.Tour.2020.WEB.H264.Dual.YG⭐.
Extraction (2020) English UNTOUCHED 720p NF WEBRip DD-5.1 ⭐800 MB⭐ ESub x264 - Shadow.
Bhoot Part One - The Haunted Ship (2020) Hindi 720p AMZN WEBRip ⭐980 MB⭐ DD-5.1 ESub x264 - Shadow.

HOT WebDL/XvID Movies
Miss Fisher and the Crypt of Tears.2020.BDRip.XviD.AC3-EVO.
Justice.League.Dark.Apokolips.War.2020.HDRip.XviD.AC3-EVO.
Remember.Me.2019.HDRip.XviD.AC3-EVO.
Wretch.2019.HDRip.XviD.AC3-EVO.
Inheritance.2020.HDRip.XviD.AC3-EVO
Greed.2020.HDRip.XviD.AC3-EVO.

Recommended HD TV
Marvels Agents of S H I E L D S07E06 720p HEVC x265-MeGusta.
Paramedics S02E15 720p HDTV x264-CBFM.
Legendary S01E03 720p WEB H264-BTX.
The 100 S07E03 720p WEB H264-BTX.
Marvels Agents of S H I E L D S07E02 720p HDTV x264-AVS.
The Last O G S03E09 720p HDTV x264-AVS.

HOT Foreign Movies
Chaman Bahar (2020) Hindi 720p NF WEBRip ⭐800 MB⭐ DD- 5.1 ESub x264 - Shadow (BonsaiHD)
Kadakh (2020) Hindi 720p SonyLiv WEB-DL ⭐1.1 GB⭐ AAC DD- 2.0 ESub x264 - Shadow (BonsaiHD)
Red Oliender
Rainbow Jelly (2018) Bengali 720p NF WEBRip 1 GB DD- 5.1 ESub x264 - Shadow (BonsaiHD)
Da 5 Bloods (2020) English 720p NF WEBRip ⭐1.4 GB⭐ DD-5.1 ESub x264 - Shadow (BonsaiHD)
Axone (2019) Hindi 720p NF WEBRip 900 MB DD-5.1 MSub x264 - Shadow (BonsaiHD)

Recommended SD TV
Marvels.Agents.of.S.H.I.E.L.D.S07E06.480p.x264-ZMNT
Legendary S01E03 WEB H264-BTX
The 100 S07E03 WEB H264-ALiGN
Marvels Agents of S H I E L D S07E02 HDTV x264-SVA
The Last O G S03E09 HDTV x264-SVA
DCs.Legends.of.Tomorrow.S05E15.480p.x264-ZMNT

Recommended Music
MP3 NEW RELEASES 2020 WEEK 21 - [GloDLS]
MP3 NEW RELEASES 2020 WEEK 20 - [GloDLS]
MP3 NEW RELEASES 2020 WEEK 19 - [GloDLS]
MutzNutz Music Pack 083 2020 - [ ANT ]
Mp3 New Albums 2020 Week 20 - [ ANT ]
MutzNutz Music Pack 082 2020 - [ ANT ]
VA - MP3 Music Pack 027 (2020) - [ ANT ]
MP3 Weekly Collection Vol 33 2020 - [ ANT ]


Torrent Details For "Kedara (2019) Bengali UNTOUCHED 720p HOICHOI WEB-D..."

Kedara (2019) Bengali UNTOUCHED 720p HOICHOI WEB-D...

Download this torrent
Last Checked: 02-07-2020 10:46:19
Tracked: External



IMDB - Kedara
Kedara Link

Category

Language

Date Added

Total Size

Completed

Added By

Info Hash

Seeders

Leechers

Views

https://www.imdb.com/title/tt9466848/

Foreign Movies > HD



30-04-2020 19:04:13

655.81 MB

3,569

Suryadipta Trusted Uploader


d532c36cae5c0b5cf3e42b564f903d469dd88ee9

124

24

18

Last Updated 04-07-2020 23:07:20

Details
Name:Kedara (2019) Bengali UNTOUCHED 720p HOICHOI WEB-D...
Description:

Visit Our Site https://hdwebmovies.pw




Movie name :

Kedara (2019) Bengali UNTOUCHED 720p HOICHOI WEB-DL x264 AAC DD-2.0 700MB [HDWebMovies]

General
Format : Matroska
Format version : Version 4
File size : 656 MiB
Duration : 1 h 51 min
Overall bit rate mode : Variable
Overall bit rate : 822 kb/s
Encoded date : UTC 2020-04-30 17:22:52
Writing application : mkvmerge v31.0.0 ('Dolores In A Shoestand') 64-bit
Writing library : libebml v1.3.6 + libmatroska v1.4.9

Video
ID : 1
Format : AVC
Format/Info : Advanced Video Codec
Format profile : [email protected]
Format settings : CABAC / 3 Ref Frames
Format settings, CABAC : Yes
Format settings, Reference frames : 3 frames
Codec ID : V_MPEG4/ISO/AVC
Duration : 1 h 51 min
Bit rate mode : Variable
Bit rate : 695 kb/s
Maximum bit rate : 1 400 kb/s
Width : 1 280 pixels
Height : 720 pixels
Display aspect ratio : 16:9
Frame rate mode : Constant
Frame rate : 24.000 FPS
Color space : YUV
Chroma subsampling : 4:2:0
Bit depth : 8 bits
Scan type : Progressive
Bits/(Pixel*Frame) : 0.031
Stream size : 554 MiB (84%)
Default : Yes
Forced : No

Audio
ID : 2
Format : AAC LC
Format/Info : Advanced Audio Codec Low Complexity
Codec ID : A_AAC-2
Duration : 1 h 51 min
Bit rate : 125 kb/s
Channel(s) : 2 channels
Channel layout : L R
Sampling rate : 48.0 kHz
Frame rate : 46.875 FPS (1024 SPF)
Compression mode : Lossy
Delay relative to video : -33 ms
Stream size : 100.0 MiB (15%)
Language : English
Default : Yes
Forced : No













Ratings:Not Yet Rated (Log in to rate it)


Tracker:
udp://tracker.coppersurfer.tk:6969/announce

This Torrent also has backup trackers
URLSeedersLeechersCompleted
udp://tracker.coppersurfer.tk:6969/announce1229
udp://tracker.leechers-paradise.org:6969/announce1421,011
udp://tracker.cyberia.is:6969/announce102658
udp://tracker.iamhansen.xyz:2000/announce111
udp://p4p.arenabg.com:1337/announce8212
udp://explodie.org:6969/announce310
udp://tracker.opentrackr.org:1337/announce92528
udp://tracker.tiny-vps.com:6969/announce11216
udp://exodus.desync.com:6969/announce92301
udp://tracker.torrent.eu.org:451/announce142440
udp://tracker.moeking.me:6969/announce12260
udp://ipv4.tracker.harry.lu:80/announce510
udp://open.stealth.si:80/announce92428
udp://9.rarbg.to:2710/announce705
udp://opentor.org:2710/announce01100


File List: 


Comments

No comments still posted