Recommended SD TV
Strike S05E04 720p HDTV x264-ORGANiC
The.Lost.Kitchen.S03E08.WEBRip.x264-XEN0N
Family.Karma.S03E07.WEBRip.x264-XEN0N
Yellowstone.S05E07.WEBRip.x264-XEN0N
Strike.S05E03.WEBRip.x264-XEN0N
Top.Gear.S33E05.WEBRip.x264-XEN0N

Recommended HD Movies
Pinocchio (2022) [WEBRip] [1080p] [YTS.MX]
Thor: Love and Thunder (2022) FullHD 1080p.H264 Ita Eng AC3 5.1 Sub Ita Eng realDMDJ DDL Ita
Zombae (2022) [WEBRip] [1080p] [YTS.MX]
Low Life (2022) [WEBRip] [1080p] [YTS.MX]
Cain and Abel (2021) [WEBRip] [1080p] [YTS.MX]
Proverbs 31 (2021) [WEBRip] [720p] [YTS.MX]

Recommended Music
MP3 NEW RELEASES 2022 WEEK 06 - [GloDLS]
MP3 NEW RELEASES 2022 WEEK 05 - [GloDLS]
MP3 NEW RELEASES 2022 WEEK 04 - [GloDLS]
MP3 NEW RELEASES 2022 WEEK 03 - [GloDLS]
MP3 NEW RELEASES 2022 WEEK 02 - [GloDLS]
MP3 NEW RELEASES 2022 WEEK 01 - [GloDLS]
MP3 NEW RELEASES 2021 WEEK 40 - [GloDLS]
MP3 NEW RELEASES 2021 WEEK 39 - [GloDLS]

Recommended HD TV
The Lost Kitchen S03E08 720p WEB h264-KOGi
Family Karma S03E07 720p WEB H264-RAGEQUIT
Yellowstone.S05E07.720p.x265-T0PAZ
Top.Gear.S33E05.Episode.5.720p.iP.WEBRip.AAC2.0.H264-playWEB[TGx]
1923.S01E01.720p.x265-T0PAZ
Tulsa.King.S01E06.1080p.x265-ELiTE

HOT Foreign Movies
RRR (2022) Hindi 1080p HDCAM [No LOGO] x264 AAC 2 6GB [HDWebMovies]
Sardar Udham (2021) Hindi 720p AMZN WEB-DL AC3DDP5+1 x264 ESub 1.1GB [Themoviesboss]
Bhuj: The Pride of India (2021) Hindi UNTOUCHED 1080p HS WEB-DL AC3DD5.1 ESub 1.6GB [HDWebMovies]
Rurouni.Kenshin.The.Beginning.Part.2.2021.WEBRip.h264-Dual.YG⭐
Kalki (2019)  HDRip x264 HiNdi Dubb AAC
Sandeep Aur Pinky Faraar (2021) Hindi WebHD 720p AAC 2.0

Torrent Details For "Last Survivors (2021) 1080p h264 Ac3 5.1 Ita Eng S..."

Last Survivors (2021) 1080p h264 Ac3 5.1 Ita Eng S...

Download this torrent
Last Checked: 01-02-2023 03:12:20
Tracked: External



Technical Info
Last Survivors (2021) 1080p h264 Ac3 5.1 Ita Eng Sub Eng-MIRCrew Category

Language

Date Added

Total Size

Completed

Added By

Info Hash

Seeders

Leechers

Views

Movies > HD

English

23-01-2023 12:06:51

2.36 GB

6,855

MIRCrewRS Trusted Uploader


737dbd2f01a18a1fc02e6ae36e2942e8877fe542

236

20

25

Last Updated 02-02-2023 07:36:27

Details
Name:Last Survivors (2021) 1080p h264 Ac3 5.1 Ita Eng S...
Description:
Last Survivors (2021) 1080p h264 Ac3 5.1 Ita Eng Sub Eng-MIRCrew




NO FOUND ONLY ORIGINAL RELEASE

My release is always in double track audio italian and Original audio
for select it use VLC or dvd player home
not use wmp


Last Survivors (2021)

Quality MIRCrew in HD 1080p da 2,36 gb



 



Titolo originale: Last Survivors
Genere: Thriller, Fantascienza
Regia: Drew Mylrea
Sceneggiatura: Josh Janowicz
Durata: 98 min.
Anno: 2021
Paese: Stati Uniti



Drew Van Acker, Alicia Silverstone, Stephen Moyer, Mark Famiglietti, Benjamin Arthur



Un padre e un figlio, che vivono fuori dal sistema da vent'anni, incontrano un estraneo che minaccia di distruggere l'utopia che hanno costruito.



Last Survivors takes place in a post-apocalyptic world where Troy raises his now grown son, Jake, in a perfect wooded utopia thousands of miles away from the decayed cities. When Troy is severely wounded, Jake is forced to travel to the outside world to find life-saving medicine











[spoiler]

General

Complete name                            : Last Survivors (2021) 1080p h264 Ac3 5.1 Ita Eng Sub Eng-MIRCrew.mkv
Format                                   : Matroska
Format version                           : Version 2
File size                                : 2.36 GiB
Duration                                 : 1h 38mn
Overall bit rate                         : 3 431 Kbps
Movie name                               : MIRCrew
Encoded date                             : UTC 2023-01-21T12:35:45Z
Writing application                      : mkvmerge v5.8.0 ('No Sleep / Pillow') built on Sep  2 2012 15:37:04
Writing library                          : Lavf55.12.0


Video
ID                                       : 1
Format                                   : AVC
Format/Info                              : Advanced Video Codec
Format profile                           : [email protected]
Format settings, CABAC                   : Yes
Format settings, ReFrames                : 4 frames
Codec ID                                 : V_MPEG4/ISO/AVC
Duration                                 : 1h 38mn
Bit rate                                 : 2 600 Kbps
Width                                    : 1 872 pixels
Height                                   : 656 pixels
Display aspect ratio                     : 2.854
Frame rate                               : 23.976 fps
Color space                              : YUV
Chroma subsampling                       : 4:2:0
Bit depth                                : 8 bits
Scan type                                : Progressive
Bits/(Pixel*Frame)                       : 0.088
Stream size                              : 1.74 GiB (74%)
Title                                    : MIRCrew
Writing library                          : x264 core 142 r2479 dd79a61
Encoding settings                        : cabac=1 / ref=1 / deblock=1:0:0  
Language                                 : Italian
Default                                  : Yes
Forced                                   : No
Color primaries                          : BT.709-5, BT.1361, IEC 61966-2-4, SMPTE RP177
Transfer characteristics                 : BT.709-5, BT.1361
Matrix coefficients                      : BT.709-5, BT.1361, IEC 61966-2-4 709, SMPTE RP177

Audio #1
ID                                       : 2
Format                                   : AC-3
Format/Info                              : Audio Coding 3
Mode extension                           : CM (complete main)
Codec ID                                 : A_AC3
Duration                                 : 1h 38mn
Bit rate mode                            : Constant
Bit rate                                 : 448 Kbps
Channel(s)                               : 6 channels
Channel positions                        : Front: L C R, Side: L R, LFE
Sampling rate                            : 48.0 KHz
Bit depth                                : 16 bits
Compression mode                         : Lossy
Delay relative to video                  : -5ms
Stream size                              : 316 MiB (13%)
Title                                    : Ita Ac3 5.1
Language                                 : Italian
Default                                  : No
Forced                                   : No

Audio #2
ID                                       : 3
Format                                   : AC-3
Format/Info                              : Audio Coding 3
Mode extension                           : CM (complete main)
Codec ID                                 : A_AC3
Duration                                 : 1h 38mn
Bit rate mode                            : Constant
Bit rate                                 : 384 Kbps
Channel(s)                               : 6 channels
Channel positions                        : Front: L C R, Side: L R, LFE
Sampling rate                            : 48.0 KHz
Bit depth                                : 16 bits
Compression mode                         : Lossy
Delay relative to video                  : -5ms
Stream size                              : 271 MiB (11%)
Title                                    : Eng Ac3 5.1
Language                                 : English
Default                                  : No
Forced                                   : No

Text #1
ID                                       : 4
Format                                   : ASS
Codec ID                                 : S_TEXT/ASS
Codec ID/Info                            : Advanced Sub Station Alpha
Compression mode                         : Lossless
Title                                    : Eng
Language                                 : English
Default                                  : No
Forced                                   : No

Text #2
ID                                       : 5
Format                                   : ASS
Codec ID                                 : S_TEXT/ASS
Codec ID/Info                            : Advanced Sub Station Alpha
Compression mode                         : Lossless
Title                                    : Forced ita
Language                                 : Italian
Default                                  : Yes
Forced                                   : Yes




[/spoiler]







Ratings:Not Yet Rated (Log in to rate it)


Tracker:
udp://tracker.torrent.eu.org:451/announce

This Torrent also has backup trackers
URLSeedersLeechersCompleted
udp://tracker.torrent.eu.org:451/announce2671,134
udp://tracker.openbittorrent.com:6969/announce2435
udp://p4p.arenabg.com:1337/announce1400
udp://explodie.org:6969/announce1500
udp://tracker.opentrackr.org:1337/announce2821,052
udp://opentracker.i2p.rocks:6969/announce252595
udp://exodus.desync.com:6969/announce230651
udp://ipv4.tracker.harry.lu:80/announce221638
udp://open.stealth.si:80/announce1912
udp://9.rarbg.me:28602021,389
udp://9.rarbg.to:28402021,389


File List: 


Comments

No comments still posted