Recommended SD TV
Charmed.S03E18.480p.x264-ZMNT
Star.Wars.The.Bad.Batch.S01E13.480p.x264-ZMNT
Walker.S01E17.480p.x264-ZMNT
The.Outpost.S04E02.480p.x264-ZMNT
Kung.Fu.S01E13.480p.x264-ZMNT
The.Flash.S07E15.480p.x264-ZMNT

Recommended HD Movies
Miss Fisher & the Crypt of Tears (2020) BluRay 1080p.H264 Ita Eng AC3 5.1 Sub Ita Eng - realDMDJ
Blood Red Sky 2021 1080p WEB-Rip H264 AC3 5-1 KINGDOM-RG
Jolt.2021.WEB.H264-Dual.YG⭐
A.Quiet.Place.2018.BDRip.2160p.UHD.HDR.Multilang.TrueHD.DD5.1.gerald99
The Hitman
Out of Death (2021) [WEBRip] [720p] [YTS.MX].

Recommended Music
Cactus - 2021 - Tightrope [FLAC] (miok)
MP3 NEW WEEKLY RELEASES 2021 11 - [ ANT ]
MP3 NEW WEEKLY RELEASES 2021 10 - [ ANT ]
MP3 NEW WEEKLY RELEASES 2021 08 - [ ANT ]
MP3 NEW WEEKLY RELEASES 2021 07 - [ ANT ]
MP3 NEW WEEKLY RELEASES 2021 06 - [ ANT ]
MP3 NEW WEEKLY RELEASES 2021 05 - [ ANT ]
MP3 NEW WEEKLY RELEASES 2021 04 - [ ANT ]

Recommended HD TV
Charmed.S03E18.720p.x265-ZMNT.
Star.Wars.The.Bad.Batch.S01E13.720p.x265-ZMNT.
Walker.S01E17.720p.x265-ZMNT.
The.Outpost.S04E02.720p.x265-ZMNT.
Kung.Fu.S01E13.720p.x265-ZMNT.
The.Flash.S07E15.720p.x265-ZMNT

HOT Foreign Movies
Kalki (2019)  HDRip x264 HiNdi Dubb AAC
Sandeep Aur Pinky Faraar (2021) Hindi WebHD 720p AAC 2.0
Sultan (2021) HDRip x264 HiNdi Dubb AAC - 1GB
Hum Bhi Akele Tum Bhi Akele (2019) WebRip 720p Hindi AAC 2.0
Wild Dog (2021) HDRip x264 HiNdi Dubb AAC - 1.17GB
Radhe (2021) Hindi WEB-DL 720p AAC2.0 - 1GB

HOT WebDL/XvID Movies
Zack.Snyders.Justice.League.2021.HDRip.XviD.AC3-EVO [ A N T ].
A.Taste.of.Christmas.2020.HDRip.XviD.AC3-EVO[TGx]
Tenet.2020.HDRip.XviD.AC3-EVO[TGx]
After We Collided.2020.BDRip.XviD-EVO[TGx]
Life.in.a.Year.2020.HDRip.XviD.AC3-EVO[TGx]
Black.Beauty.2020.HDRip.XviD.AC3-EVO[TGx]

Torrent Details For "Infinite.2021.HDR10plus.2160p.WEB.H265-NAISU"

Infinite.2021.HDR10plus.2160p.WEB.H265-NAISU

Download this torrent
Last Checked: 09-07-2021 20:01:41
Tracked: External



Technical Info
Infinite.2021.HDR10plus.2160p.WEB.H265-NAISU Category

Language

Date Added

Total Size

Completed

Added By

Info Hash

Seeders

Leechers

Views

Movies > HD

English

11-06-2021 12:08:24

11.00 GB

725

gerald99 Trusted Uploader


88a51bbea74d1ee9090c5e91acaf4d0ff068e0a9

29

33

166

Last Updated 29-07-2021 08:57:01

Details
Name:Infinite.2021.HDR10plus.2160p.WEB.H265-NAISU
Description:
Infinite.2021.HDR10plus.2160p.WEB.H265-NAISU

https://www.imdb.com/title/tt6654210/
Video
ID                                       : 1
Format                                   : HEVC
Format/Info                              : High Efficiency Video Coding
Format profile                           : Main [email protected]@High
HDR format                               : SMPTE ST 2094 App 4, Version 1, HDR10+ Profile B compatible
Codec ID                                 : V_MPEGH/ISO/HEVC
Duration                                 : 1 min 2 s
Bit rate                                 : 14.2 Mb/s
Width                                    : 3 840 pixels
Height                                   : 2 160 pixels
Display aspect ratio                     : 16:9
Frame rate mode                          : Constant
Frame rate                               : 23.976 (24000/1001) FPS
Color space                              : YUV
Chroma subsampling                       : 4:2:0 (Type 2)
Bit depth                                : 10 bits
Bits/(Pixel*Frame)                       : 0.072
Stream size                              : 105 MiB (95%)
Default                                  : Yes
Forced                                   : No
Color range                              : Full
Color primaries                          : BT.2020
Transfer characteristics                 : PQ
Matrix coefficients                      : BT.2020 non-constant
Mastering display color primaries        : Display P3
Mastering display luminance              : min: 0.0001 cd/m2, max: 1000 cd/m2

Audio
ID                                       : 2
Format                                   : AC-3
Format/Info                              : Audio Coding 3
Commercial name                          : Dolby Digital
Codec ID                                 : A_AC3
Duration                                 : 1 min 2 s
Bit rate mode                            : Constant
Bit rate                                 : 384 kb/s
Channel(s)                               : 6 channels
Channel layout                           : L R C LFE Ls Rs
Sampling rate                            : 48.0 kHz
Frame rate                               : 31.250 FPS (1536 SPF)
Compression mode                         : Lossy
Delay relative to video                  : 6 ms
Stream size                              : 2.84 MiB (3%)
Language                                 : English
Service kind                             : Complete Main
Default                                  : Yes
Forced                                   : No

Text
ID                                       : 3
Format                                   : UTF-8
Codec ID                                 : S_TEXT/UTF8
Codec ID/Info                            : UTF-8 Plain Text
Title                                    : English
Language                                 : English
Default                                  : No
Forced                                   : No

Screen






Ratings:Not Yet Rated (Log in to rate it)


Tracker:
udp://tracker.opentrackr.org:1337/announce

This Torrent also has backup trackers
URLSeedersLeechersCompleted
udp://tracker.opentrackr.org:1337/announce812275
udp://tracker.torrent.eu.org:451/announce1472
udp://open.stealth.si:80/announce1581
udp://retracker.lanta-net.ru:2710/announce140
udp://inferno.demonoid.is:3391/announce1061
udp://fe.dealclub.de:6969/announce101
udp://tracker.uw0.xyz:6969/announce1078
udp://tracker.openbittorrent.com:80/announce922
http://tracker.foreverpirates.co:80/announce1027
udp://code2chicken.nl:6969/announce1057
udp://mail.realliferpg.de:6969/announce1068
udp://tracker.dler.org:6969/announce030
udp://opentor.org:2710/announce111
udp://tracker.internetwarriors.net:1337/announce111
udp://explodie.org:6969/announce111


File List: 


Comments

No comments still posted