Recommended SD TV
Charmed.S04E13.480p.x264-ZMNT
Legacies.S04E19.480p.x264-ZMNT
The.Boys.S03E04.480p.x264-ZMNT
The.Flash.S08E17.480p.x264-ZMNT
Star.Trek.Strange.New.Worlds.S01E06.480p.x264-ZMNT
Obi-Wan.Kenobi.S01E02.480p.x264-ZMNT

Recommended HD Movies
Moonfall.2022.WEBRip.2160p.UHD.HDR.Eng.DD5.1.gerald99
A Journal for Jordan (2021) BluRay 1080p.H264 Ita Eng AC3 5.1 Sub Ita Eng - realDMDJ iDN CreW.
Better Nate Than Ever (2022) Meglio Nate....Disney+ FullHD 1080p.H264 Ita Eng AC3 5.1 Multisub realDMDJ iDN CreW.
Mad.Max.Fury.Road.2015.BRRip.2160p.UHD.HDR.Eng.DD5.1.gerald99
The Contractor (2022) [WEBRip] [1080p] [YTS.MX].
West Side Story (2021) [BluRay] [720p] [YTS.MX].

Recommended Music
MP3 NEW RELEASES 2022 WEEK 06 - [GloDLS]
MP3 NEW RELEASES 2022 WEEK 05 - [GloDLS]
MP3 NEW RELEASES 2022 WEEK 04 - [GloDLS]
MP3 NEW RELEASES 2022 WEEK 03 - [GloDLS]
MP3 NEW RELEASES 2022 WEEK 02 - [GloDLS]
MP3 NEW RELEASES 2022 WEEK 01 - [GloDLS]
MP3 NEW RELEASES 2021 WEEK 40 - [GloDLS]
MP3 NEW RELEASES 2021 WEEK 39 - [GloDLS]

Recommended HD TV
Charmed.S04E13.720p.x265-ZMNT.
Legacies.S04E19.720p.x265-ZMNT.
The.Boys.S03E04.720p.x265-ZMNT.
The.Flash.S08E17.720p.x265-ZMNT.
Star.Trek.Strange.New.Worlds.S01E06.720p.x265-ZMNT.
Obi-Wan.Kenobi.S01E02.720p.x265-ZMNT

HOT Foreign Movies
Rurouni.Kenshin.The.Beginning.Part.2.2021.WEBRip.h264-Dual.YG⭐
Kalki (2019)  HDRip x264 HiNdi Dubb AAC
Sandeep Aur Pinky Faraar (2021) Hindi WebHD 720p AAC 2.0
Sultan (2021) HDRip x264 HiNdi Dubb AAC - 1GB
Hum Bhi Akele Tum Bhi Akele (2019) WebRip 720p Hindi AAC 2.0
Wild Dog (2021) HDRip x264 HiNdi Dubb AAC - 1.17GB

Torrent Details For "Shiddat (2021) Hindi UNTOUCHED 720p DSNP WEB-DL AC..."

Shiddat (2021) Hindi UNTOUCHED 720p DSNP WEB-DL AC...

Download this torrent
Last Checked: 01-08-2022 16:26:04
Tracked: External



Technical Info
Shiddat (2021) Hindi UNTOUCHED 720p DSNP WEB-DL AC3DD+5.1 x264-ESub 1.5GB [Themoviesboss] Category

Language

Date Added

Total Size

Completed

Added By

Info Hash

Seeders

Leechers

Views

Foreign Movies > HD

Hindi

30-09-2021 20:49:27

1.53 GB

34,512

Suryadipta Trusted Uploader


c23b6952f627e9b455f43258c09a42adcc31b512

440

38

312

Last Updated 11-08-2022 01:24:11

Details
Name:Shiddat (2021) Hindi UNTOUCHED 720p DSNP WEB-DL AC...
Description:
Visit Our Site
  themoviesboss.com

firetorrents.org


Encoded by                               : Harley Quinn



Movie name :

Shiddat (2021) Hindi UNTOUCHED 720p DSNP WEB-DL AC3DD+5.1 x264-ESub 1.5GB [Themoviesboss [Themoviesboss]

General
Format : Matroska
Format version : Version 4
File size : 1.53 GiB
Duration : 2 h 26 min
Overall bit rate : 1 492 kb/s
Encoded date : UTC 2021-09-30 19:07:51
Writing application : mkvmerge v60.0.0 ('Are We Copies?') 64-bit
Writing library : libebml v1.4.2 + libmatroska v1.6.4

Video
ID : 1
Format : AVC
Format/Info : Advanced Video Codec
Format profile : [email protected]
Format settings : CABAC / 5 Ref Frames
Format settings, CABAC : Yes
Format settings, Reference frames : 5 frames
Format settings, GOP : M=4, N=48
Codec ID : V_MPEG4/ISO/AVC
Duration : 2 h 26 min
Bit rate : 1 300 kb/s
Width : 1 280 pixels
Height : 720 pixels
Display aspect ratio : 16:9
Frame rate mode : Constant
Frame rate : 24.000 FPS
Color space : YUV
Chroma subsampling : 4:2:0
Bit depth : 8 bits
Scan type : Progressive
Bits/(Pixel*Frame) : 0.059
Stream size : 1.33 GiB (87%)
Writing library : x264 core 155 r2917+2 f192430
Language : Hindi
Default : Yes
Forced : No
Color range : Limited
Color primaries : BT.709
Matrix coefficients : BT.709

Audio
ID : 2
Format : E-AC-3
Format/Info : Enhanced AC-3
Commercial name : Dolby Digital Plus
Codec ID : A_EAC3
Duration : 2 h 26 min
Bit rate mode : Constant
Bit rate : 192 kb/s
Channel(s) : 6 channels
Channel layout : L R C LFE Ls Rs
Sampling rate : 48.0 kHz
Frame rate : 31.250 FPS (1536 SPF)
Compression mode : Lossy
Stream size : 201 MiB (13%)
Language : Hindi
Service kind : Complete Main
Default : Yes
Forced : No

Text
ID : 3
Format : S_TEXT/WEBVTT
Codec ID : S_TEXT/WEBVTT
Duration : 2 h 24 min
Bit rate : 74 b/s
Count of elements : 2214
Stream size : 78.9 KiB (0%)
Language : English
Default : Yes
Forced : No


                                       











Ratings:Not Yet Rated (Log in to rate it)


Tracker:
udp://tracker.nyaa.uk:6969/announce

This Torrent also has backup trackers
URLSeedersLeechersCompleted
udp://tracker.nyaa.uk:6969/announce111
udp://tracker.coppersurfer.tk:6969/announce111
udp://tracker.opentrackr.org:1337/announce101621,216
udp://9.rarbg.com:2970/announce34158
udp://p4p.arenabg.com:1337/announce1620
udp://tracker.pirateparty.gr:6969/announce111
udp://exodus.desync.com:6969/announce564395
udp://tracker.torrent.eu.org:451/announce71510,467
udp://tracker.tiny-vps.com:6969/announce125194
http://pow7.com:80/announce79510
udp://151.80.120.114:2710/announce111
udp://9.rarbg.to:2790/announce34158
udp://open.stealth.si:80/announce3242,109
udp://tracker.leechers-paradise.org:6969/announce111
http://t.nyaatracker.com:80/announce000


File List: 


Comments

No comments still posted