Recommended SD TV
Charmed.S04E13.480p.x264-ZMNT
Legacies.S04E19.480p.x264-ZMNT
The.Boys.S03E04.480p.x264-ZMNT
The.Flash.S08E17.480p.x264-ZMNT
Star.Trek.Strange.New.Worlds.S01E06.480p.x264-ZMNT
Obi-Wan.Kenobi.S01E02.480p.x264-ZMNT

Recommended HD Movies
Pinocchio (2022) [WEBRip] [1080p] [YTS.MX]
Thor: Love and Thunder (2022) FullHD 1080p.H264 Ita Eng AC3 5.1 Sub Ita Eng realDMDJ DDL Ita
Zombae (2022) [WEBRip] [1080p] [YTS.MX]
Low Life (2022) [WEBRip] [1080p] [YTS.MX]
Cain and Abel (2021) [WEBRip] [1080p] [YTS.MX]
Proverbs 31 (2021) [WEBRip] [720p] [YTS.MX]

Recommended Music
MP3 NEW RELEASES 2022 WEEK 06 - [GloDLS]
MP3 NEW RELEASES 2022 WEEK 05 - [GloDLS]
MP3 NEW RELEASES 2022 WEEK 04 - [GloDLS]
MP3 NEW RELEASES 2022 WEEK 03 - [GloDLS]
MP3 NEW RELEASES 2022 WEEK 02 - [GloDLS]
MP3 NEW RELEASES 2022 WEEK 01 - [GloDLS]
MP3 NEW RELEASES 2021 WEEK 40 - [GloDLS]
MP3 NEW RELEASES 2021 WEEK 39 - [GloDLS]

Recommended HD TV
See.S03E01.720p.x264-FENiX
Charmed.S04E13.720p.x265-ZMNT.
Legacies.S04E19.720p.x265-ZMNT.
The.Boys.S03E04.720p.x265-ZMNT.
The.Flash.S08E17.720p.x265-ZMNT.
Star.Trek.Strange.New.Worlds.S01E06.720p.x265-ZMNT.

HOT Foreign Movies
RRR (2022) Hindi 1080p HDCAM [No LOGO] x264 AAC 2 6GB [HDWebMovies]
Sardar Udham (2021) Hindi 720p AMZN WEB-DL AC3DDP5+1 x264 ESub 1.1GB [Themoviesboss]
Bhuj: The Pride of India (2021) Hindi UNTOUCHED 1080p HS WEB-DL AC3DD5.1 ESub 1.6GB [HDWebMovies]
Rurouni.Kenshin.The.Beginning.Part.2.2021.WEBRip.h264-Dual.YG⭐
Kalki (2019)  HDRip x264 HiNdi Dubb AAC
Sandeep Aur Pinky Faraar (2021) Hindi WebHD 720p AAC 2.0

Torrent Details For "Sardar Udham (2021) Hindi 720p AMZN WEB-DL AC3DDP5..."

Sardar Udham (2021) Hindi 720p AMZN WEB-DL AC3DDP5...

Download this torrent
Last Checked: 26-09-2022 03:49:17
Tracked: External



Technical Info
Sardar Udham (2021) Hindi 720p AMZN WEB-DL AC3DDP5+1 x264 ESub 1.1GB [Themoviesboss] Category

Language

Date Added

Total Size

Completed

Added By

Info Hash

Seeders

Leechers

Views

Foreign Movies > HD

Hindi

15-10-2021 22:21:33

1.14 GB

41,978

Suryadipta Trusted Uploader


1870fed96da152feee5bab7f88c3429b5c142153

131

47

356

Last Updated 27-09-2022 02:05:30

Details
Name:Sardar Udham (2021) Hindi 720p AMZN WEB-DL AC3DDP5...
Description:
Visit Our Site
  themoviesboss.com

firetorrents.org


Encoded by                               : Harley Quinn



Movie name :

Sardar Udham (2021) Hindi 720p AMZN WEB-DL AC3DDP5+1 x264 ESub 1.1GB [Themoviesboss]

General
Format : Matroska
Format version : Version 4
File size : 1.14 GiB
Duration : 2 h 42 min
Overall bit rate : 1 002 kb/s
Encoded date : UTC 2021-10-15 20:36:05
Writing application : mkvmerge v60.0.0 ('Are We Copies?') 64-bit
Writing library : libebml v1.4.2 + libmatroska v1.6.4

Video
ID : 1
Format : AVC
Format/Info : Advanced Video Codec
Format profile : [email protected]
Format settings : CABAC / 5 Ref Frames
Format settings, CABAC : Yes
Format settings, Reference frames : 5 frames
Codec ID : V_MPEG4/ISO/AVC
Duration : 2 h 42 min
Bit rate : 808 kb/s
Width : 1 280 pixels
Height : 528 pixels
Display aspect ratio : 2.40:1
Original display aspect ratio : 2.40:1
Frame rate mode : Constant
Frame rate : 24.000 FPS
Color space : YUV
Chroma subsampling : 4:2:0
Bit depth : 8 bits
Scan type : Progressive
Bits/(Pixel*Frame) : 0.050
Stream size : 941 MiB (81%)
Language : Hindi
Default : Yes
Forced : No
Color range : Limited
Color primaries : BT.709
Transfer characteristics : BT.709
Matrix coefficients : BT.709

Audio
ID : 2
Format : E-AC-3
Format/Info : Enhanced AC-3
Commercial name : Dolby Digital Plus
Codec ID : A_EAC3
Duration : 2 h 42 min
Bit rate mode : Constant
Bit rate : 192 kb/s
Channel(s) : 6 channels
Channel layout : L R C LFE Ls Rs
Sampling rate : 48.0 kHz
Frame rate : 31.250 FPS (1536 SPF)
Compression mode : Lossy
Stream size : 224 MiB (19%)
Language : Hindi
Service kind : Complete Main
Default : Yes
Forced : No

Text
ID : 3
Format : UTF-8
Codec ID : S_TEXT/UTF8
Codec ID/Info : UTF-8 Plain Text
Duration : 2 h 32 min
Bit rate : 41 b/s
Count of elements : 1645
Stream size : 45.7 KiB (0%)
Language : English
Default : Yes
Forced : No

                                       












Ratings:Not Yet Rated (Log in to rate it)


Tracker:
udp://tracker.nyaa.uk:6969/announce

This Torrent also has backup trackers
URLSeedersLeechersCompleted
udp://tracker.nyaa.uk:6969/announce111
udp://tracker.coppersurfer.tk:6969/announce111
udp://tracker.opentrackr.org:1337/announce451424,554
udp://9.rarbg.com:2970/announce111
udp://p4p.arenabg.com:1337/announce720
udp://tracker.pirateparty.gr:6969/announce111
udp://exodus.desync.com:6969/announce1431,662
udp://tracker.torrent.eu.org:451/announce14613,340
udp://tracker.tiny-vps.com:6969/announce9561
http://pow7.com:80/announce14510
udp://151.80.120.114:2710/announce111
udp://9.rarbg.to:2790/announce103322
udp://open.stealth.si:80/announce1232,023
udp://tracker.leechers-paradise.org:6969/announce111
http://t.nyaatracker.com:80/announce000


File List: 


Comments

No comments still posted